  0
SECTION
  2
HEADER
  9
$ACADVER
  1
AC1015
  9
$ACADMAINTVER
 70
     6
  9
$DWGCODEPAGE
  3
ANSI_932
  9
$INSBASE
 10
0.0
 20
0.0
 30
0.0
  9
$EXTMIN
 10
-117.6069841392893
 20
817.5308658634675
 30
0.0
  9
$EXTMAX
 10
682.3930158607106
 20
1367.530865863467
 30
0.0
  9
$LIMMIN
 10
0.0
 20
0.0
  9
$LIMMAX
 10
420.0
 20
297.0
  9
$ORTHOMODE
 70
     0
  9
$REGENMODE
 70
     1
  9
$FILLMODE
 70
     1
  9
$QTEXTMODE
 70
     0
  9
$MIRRTEXT
 70
     1
  9
$LTSCALE
 40
1.0
  9
$ATTMODE
 70
     1
  9
$TEXTSIZE
 40
2.5
  9
$TRACEWID
 40
1.0
  9
$TEXTSTYLE
  7
Standard
  9
$CLAYER
  8
0
  9
$CELTYPE
  6
ByLayer
  9
$CECOLOR
 62
   256
  9
$CELTSCALE
 40
0.5
  9
$DISPSILH
 70
     0
  9
$DIMSCALE
 40
1.0
  9
$DIMASZ
 40
5.0
  9
$DIMEXO
 40
2.0
  9
$DIMDLI
 40
3.75
  9
$DIMRND
 40
0.0
  9
$DIMDLE
 40
0.0
  9
$DIMEXE
 40
5.0
  9
$DIMTP
 40
0.0
  9
$DIMTM
 40
0.0
  9
$DIMTXT
 40
6.0
  9
$DIMCEN
 40
2.5
  9
$DIMTSZ
 40
0.0
  9
$DIMTOL
 70
     0
  9
$DIMLIM
 70
     0
  9
$DIMTIH
 70
     0
  9
$DIMTOH
 70
     0
  9
$DIMSE1
 70
     0
  9
$DIMSE2
 70
     0
  9
$DIMTAD
 70
     1
  9
$DIMZIN
 70
     8
  9
$DIMBLK
  1

  9
$DIMASO
 70
     1
  9
$DIMSHO
 70
     1
  9
$DIMPOST
  1

  9
$DIMAPOST
  1

  9
$DIMALT
 70
     0
  9
$DIMALTD
 70
     3
  9
$DIMALTF
 40
0.1
  9
$DIMLFAC
 40
1.0
  9
$DIMTOFL
 70
     1
  9
$DIMTVP
 40
0.0
  9
$DIMTIX
 70
     0
  9
$DIMSOXD
 70
     0
  9
$DIMSAH
 70
     0
  9
$DIMBLK1
  1

  9
$DIMBLK2
  1

  9
$DIMSTYLE
  2
ISO-25
  9
$DIMCLRD
 70
     7
  9
$DIMCLRE
 70
     7
  9
$DIMCLRT
 70
     0
  9
$DIMTFAC
 40
1.0
  9
$DIMGAP
 40
3.0
  9
$DIMJUST
 70
     0
  9
$DIMSD1
 70
     0
  9
$DIMSD2
 70
     0
  9
$DIMTOLJ
 70
     0
  9
$DIMTZIN
 70
     8
  9
$DIMALTZ
 70
     0
  9
$DIMALTTZ
 70
     0
  9
$DIMUPT
 70
     0
  9
$DIMDEC
 70
     2
  9
$DIMTDEC
 70
     2
  9
$DIMALTU
 70
     2
  9
$DIMALTTD
 70
     3
  9
$DIMTXSTY
  7
Standard
  9
$DIMAUNIT
 70
     0
  9
$DIMADEC
 70
     0
  9
$DIMALTRND
 40
0.0
  9
$DIMAZIN
 70
     0
  9
$DIMDSEP
 70
    46
  9
$DIMATFIT
 70
     3
  9
$DIMFRAC
 70
     0
  9
$DIMLDRBLK
  1

  9
$DIMLUNIT
 70
     2
  9
$DIMLWD
 70
     9
  9
$DIMLWE
 70
     9
  9
$DIMTMOVE
 70
     0
  9
$LUNITS
 70
     2
  9
$LUPREC
 70
     4
  9
$SKETCHINC
 40
1.0
  9
$FILLETRAD
 40
10.0
  9
$AUNITS
 70
     0
  9
$AUPREC
 70
     0
  9
$MENU
  1
.
  9
$ELEVATION
 40
0.0
  9
$PELEVATION
 40
0.0
  9
$THICKNESS
 40
0.0
  9
$LIMCHECK
 70
     0
  9
$CHAMFERA
 40
0.5
  9
$CHAMFERB
 40
0.5
  9
$CHAMFERC
 40
20.0
  9
$CHAMFERD
 40
0.0
  9
$SKPOLY
 70
     0
  9
$TDCREATE
 40
2454873.622250069
  9
$TDUCREATE
 40
2454873.247250069
  9
$TDUPDATE
 40
2460147.559971782
  9
$TDUUPDATE
 40
2460147.184971782
  9
$TDINDWG
 40
0.7127031944
  9
$TDUSRTIMER
 40
0.7127031944
  9
$USRTIMER
 70
     1
  9
$ANGBASE
 50
0.0
  9
$ANGDIR
 70
     0
  9
$PDMODE
 70
     0
  9
$PDSIZE
 40
0.0
  9
$PLINEWID
 40
0.0
  9
$SPLFRAME
 70
     0
  9
$SPLINETYPE
 70
     6
  9
$SPLINESEGS
 70
     8
  9
$HANDSEED
  5
AA65
  9
$SURFTAB1
 70
     6
  9
$SURFTAB2
 70
     6
  9
$SURFTYPE
 70
     6
  9
$SURFU
 70
     6
  9
$SURFV
 70
     6
  9
$UCSBASE
  2

  9
$UCSNAME
  2

  9
$UCSORG
 10
0.0
 20
0.0
 30
0.0
  9
$UCSXDIR
 10
1.0
 20
0.0
 30
0.0
  9
$UCSYDIR
 10
0.0
 20
1.0
 30
0.0
  9
$UCSORTHOREF
  2

  9
$UCSORTHOVIEW
 70
     0
  9
$UCSORGTOP
 10
0.0
 20
0.0
 30
0.0
  9
$UCSORGBOTTOM
 10
0.0
 20
0.0
 30
0.0
  9
$UCSORGLEFT
 10
0.0
 20
0.0
 30
0.0
  9
$UCSORGRIGHT
 10
0.0
 20
0.0
 30
0.0
  9
$UCSORGFRONT
 10
0.0
 20
0.0
 30
0.0
  9
$UCSORGBACK
 10
0.0
 20
0.0
 30
0.0
  9
$PUCSBASE
  2

  9
$PUCSNAME
  2

  9
$PUCSORG
 10
0.0
 20
0.0
 30
0.0
  9
$PUCSXDIR
 10
1.0
 20
0.0
 30
0.0
  9
$PUCSYDIR
 10
0.0
 20
1.0
 30
0.0
  9
$PUCSORTHOREF
  2

  9
$PUCSORTHOVIEW
 70
     0
  9
$PUCSORGTOP
 10
0.0
 20
0.0
 30
0.0
  9
$PUCSORGBOTTOM
 10
0.0
 20
0.0
 30
0.0
  9
$PUCSORGLEFT
 10
0.0
 20
0.0
 30
0.0
  9
$PUCSORGRIGHT
 10
0.0
 20
0.0
 30
0.0
  9
$PUCSORGFRONT
 10
0.0
 20
0.0
 30
0.0
  9
$PUCSORGBACK
 10
0.0
 20
0.0
 30
0.0
  9
$USERI1
 70
     0
  9
$USERI2
 70
     0
  9
$USERI3
 70
     0
  9
$USERI4
 70
     0
  9
$USERI5
 70
     0
  9
$USERR1
 40
0.0
  9
$USERR2
 40
0.0
  9
$USERR3
 40
0.0
  9
$USERR4
 40
0.0
  9
$USERR5
 40
0.0
  9
$WORLDVIEW
 70
     1
  9
$SHADEDGE
 70
     3
  9
$SHADEDIF
 70
    70
  9
$TILEMODE
 70
     1
  9
$MAXACTVP
 70
    64
  9
$PINSBASE
 10
0.0
 20
0.0
 30
0.0
  9
$PLIMCHECK
 70
     0
  9
$PEXTMIN
 10
1.042221639059562
 20
1.08829855961801
 30
0.0
  9
$PEXTMAX
 10
407.82803226079
 20
284.1844718556203
 30
0.0
  9
$PLIMMIN
 10
-5.873748779296875
 20
-5.873749732971191
  9
$PLIMMAX
 10
414.0729064941406
 20
291.0522451400757
  9
$UNITMODE
 70
     0
  9
$VISRETAIN
 70
     1
  9
$PLINEGEN
 70
     0
  9
$PSLTSCALE
 70
     1
  9
$TREEDEPTH
 70
  3020
  9
$CMLSTYLE
  2
Standard
  9
$CMLJUST
 70
     0
  9
$CMLSCALE
 40
20.0
  9
$PROXYGRAPHICS
 70
     1
  9
$MEASUREMENT
 70
     1
  9
$CELWEIGHT
370
    -1
  9
$ENDCAPS
280
     0
  9
$JOINSTYLE
280
     0
  9
$LWDISPLAY
290
     0
  9
$INSUNITS
 70
     4
  9
$HYPERLINKBASE
  1

  9
$STYLESHEET
  1

  9
$XEDIT
290
     1
  9
$CEPSNTYPE
380
     0
  9
$PSTYLEMODE
290
     1
  9
$FINGERPRINTGUID
  2
{951E45A9-2098-449B-99F4-687C375CF490}
  9
$VERSIONGUID
  2
{578D5CDA-9953-4FAA-82CE-2BF929478B71}
  9
$EXTNAMES
290
     1
  9
$PSVPSCALE
 40
0.0
  9
$OLESTARTUP
290
     0
  0
ENDSEC
  0
SECTION
  2
CLASSES
  0
CLASS
  1
ACDBDICTIONARYWDFLT
  2
AcDbDictionaryWithDefault
  3
AutoCAD 2000
 90
        0
280
     0
281
     0
  0
CLASS
  1
ACDBPLACEHOLDER
  2
AcDbPlaceHolder
  3
AutoCAD 2000
 90
        0
280
     0
281
     0
  0
CLASS
  1
LAYOUT
  2
AcDbLayout
  3
AutoCAD 2000
 90
        0
280
     0
281
     0
  0
CLASS
  1
RASTERVARIABLES
  2
AcDbRasterVariables
  3
ISM
 90
        0
280
     0
281
     0
  0
CLASS
  1
DICTIONARYVAR
  2
AcDbDictionaryVar
  3
AutoCAD 2000
 90
        0
280
     0
281
     0
  0
ENDSEC
  0
SECTION
  2
TABLES
  0
TABLE
  2
VPORT
  5
8
330
0
100
AcDbSymbolTable
 70
     2
  0
VPORT
  5
AA64
330
8
100
AcDbSymbolTableRecord
100
AcDbViewportTableRecord
  2
*Active
 70
     0
 10
0.0
 20
0.0
 11
1.0
 21
1.0
 12
281.2852823984517
 22
1126.793676356763
 13
0.0
 23
0.0
 14
10.0
 24
10.0
 15
10.0
 25
10.0
 16
0.0
 26
0.0
 36
1.0
 17
0.0
 27
0.0
 37
0.0
 40
549.9134811492417
 41
1.477300613496932
 42
50.0
 43
0.0
 44
0.0
 50
0.0
 51
0.0
 71
     0
 72
   100
 73
     1
 74
     3
 75
     0
 76
     0
 77
     0
 78
     0
281
     0
 65
     1
110
0.0
120
0.0
130
0.0
111
1.0
121
0.0
131
0.0
112
0.0
122
1.0
132
0.0
 79
     0
146
0.0
  0
ENDTAB
  0
TABLE
  2
LTYPE
  5
5
330
0
100
AcDbSymbolTable
 70
     5
  0
LTYPE
  5
14
330
5
100
AcDbSymbolTableRecord
100
AcDbLinetypeTableRecord
  2
ByBlock
 70
     0
  3

 72
    65
 73
     0
 40
0.0
  0
LTYPE
  5
15
330
5
100
AcDbSymbolTableRecord
100
AcDbLinetypeTableRecord
  2
ByLayer
 70
     0
  3

 72
    65
 73
     0
 40
0.0
  0
LTYPE
  5
16
330
5
100
AcDbSymbolTableRecord
100
AcDbLinetypeTableRecord
  2
Continuous
 70
     0
  3
Solid line
 72
    65
 73
     0
 40
0.0
  0
LTYPE
  5
35
330
5
100
AcDbSymbolTableRecord
100
AcDbLinetypeTableRecord
  2
HIDDEN
 70
     0
  3
Hidden __ __ __ __ __ __ __ __ __ __ __ __ __ _
 72
    65
 73
     2
 40
9.524999999999998
 49
6.349999999999999
 74
     0
 49
-3.174999999999999
 74
     0
  0
LTYPE
  5
36
330
5
100
AcDbSymbolTableRecord
100
AcDbLinetypeTableRecord
  2
HIDDEN2
 70
     0
  3
Hidden (.5x) _ _ _ _ _ _ _ _ _ _ _ _ _ _ _ _ _
 72
    65
 73
     2
 40
4.762499999999999
 49
3.174999999999999
 74
     0
 49
-1.587499999999999
 74
     0
  0
LTYPE
  5
37
330
5
100
AcDbSymbolTableRecord
100
AcDbLinetypeTableRecord
  2
CENTER
 70
     0
  3
Center ____ _ ____ _ ____ _ ____ _ ____ _ ____
 72
    65
 73
     4
 40
50.8
 49
31.75
 74
     0
 49
-6.349999999999999
 74
     0
 49
6.349999999999999
 74
     0
 49
-6.349999999999999
 74
     0
  0
LTYPE
  5
38
330
5
100
AcDbSymbolTableRecord
100
AcDbLinetypeTableRecord
  2
PHANTOM2
 70
     0
  3
Phantom (.5x) ___ _ _ ___ _ _ ___ _ _ ___ _ _
 72
    65
 73
     6
 40
31.75
 49
15.875
 74
     0
 49
-3.174999999999999
 74
     0
 49
3.174999999999999
 74
     0
 49
-3.174999999999999
 74
     0
 49
3.174999999999999
 74
     0
 49
-3.174999999999999
 74
     0
  0
ENDTAB
  0
TABLE
  2
LAYER
  5
2
330
0
100
AcDbSymbolTable
 70
    14
  0
LAYER
  5
10
330
2
100
AcDbSymbolTableRecord
100
AcDbLayerTableRecord
  2
0
 70
     0
 62
     7
  6
Continuous
370
     9
390
F
  0
LAYER
  5
39
330
2
100
AcDbSymbolTableRecord
100
AcDbLayerTableRecord
  2
１
 70
     0
 62
     2
  6
Continuous
370
     9
390
F
  0
LAYER
  5
3A
330
2
100
AcDbSymbolTableRecord
100
AcDbLayerTableRecord
  2
２
 70
     0
 62
     3
  6
Continuous
370
    20
390
F
  0
LAYER
  5
3B
330
2
100
AcDbSymbolTableRecord
100
AcDbLayerTableRecord
  2
３
 70
     0
 62
     4
  6
HIDDEN
370
    15
390
F
  0
LAYER
  5
3C
330
2
100
AcDbSymbolTableRecord
100
AcDbLayerTableRecord
  2
４
 70
     0
 62
     4
  6
HIDDEN2
370
    15
390
F
  0
LAYER
  5
3D
330
2
100
AcDbSymbolTableRecord
100
AcDbLayerTableRecord
  2
５
 70
     0
 62
     6
  6
CENTER
370
    15
390
F
  0
LAYER
  5
3E
330
2
100
AcDbSymbolTableRecord
100
AcDbLayerTableRecord
  2
６
 70
     0
 62
     5
  6
PHANTOM2
370
    15
390
F
  0
LAYER
  5
46
330
2
100
AcDbSymbolTableRecord
100
AcDbLayerTableRecord
  2
Defpoints
 70
     0
 62
     7
  6
Continuous
290
     0
370
    -3
390
F
  0
LAYER
  5
AB
330
2
100
AcDbSymbolTableRecord
100
AcDbLayerTableRecord
  2
Object
 70
     0
 62
     3
  6
Continuous
370
    20
390
F
  0
LAYER
  5
63B4
330
2
100
AcDbSymbolTableRecord
100
AcDbLayerTableRecord
  2
HIDDEN2
 70
     0
 62
     7
  6
HIDDEN2
370
    15
390
F
  0
LAYER
  5
64C8
330
2
100
AcDbSymbolTableRecord
100
AcDbLayerTableRecord
  2
1
 70
     0
 62
     7
  6
Continuous
370
     9
390
F
  0
LAYER
  5
64C9
330
2
100
AcDbSymbolTableRecord
100
AcDbLayerTableRecord
  2
2
 70
     0
 62
     3
  6
Continuous
370
    20
390
F
  0
LAYER
  5
8D06
330
2
100
AcDbSymbolTableRecord
100
AcDbLayerTableRecord
  2
CENTER
 70
     0
 62
     7
  6
CENTER
370
     5
390
F
  0
LAYER
  5
9A18
330
2
100
AcDbSymbolTableRecord
100
AcDbLayerTableRecord
  2
Hidden
 70
     0
 62
     4
  6
HIDDEN
370
    13
390
F
  0
ENDTAB
  0
TABLE
  2
STYLE
  5
3
330
0
100
AcDbSymbolTable
 70
     3
  0
STYLE
  5
11
330
3
100
AcDbSymbolTableRecord
100
AcDbTextStyleTableRecord
  2
Standard
 70
     0
 40
0.0
 41
1.0
 50
0.0
 71
     0
 42
2.5
  3
romans.shx
  4
bigfont.shx
  0
STYLE
  5
34
330
3
100
AcDbSymbolTableRecord
100
AcDbTextStyleTableRecord
  2

 70
     1
 40
0.0
 41
1.0
 50
0.0
 71
     0
 42
2.5
  3
ltypeshp.shx
  4

  0
STYLE
  5
12E
330
3
100
AcDbSymbolTableRecord
100
AcDbTextStyleTableRecord
  2
ｽﾀｲﾙ1
 70
     0
 40
2.5
 41
1.0
 50
0.0
 71
     0
 42
2.5
  3
txt.shx
  4

  0
ENDTAB
  0
TABLE
  2
VIEW
  5
6
330
0
100
AcDbSymbolTable
 70
     0
  0
ENDTAB
  0
TABLE
  2
UCS
  5
7
330
0
100
AcDbSymbolTable
 70
     0
  0
ENDTAB
  0
TABLE
  2
APPID
  5
9
330
0
100
AcDbSymbolTable
 70
     1
  0
APPID
  5
12
330
9
100
AcDbSymbolTableRecord
100
AcDbRegAppTableRecord
  2
ACAD
 70
     0
  0
ENDTAB
  0
TABLE
  2
DIMSTYLE
  5
A
330
0
100
AcDbSymbolTable
 70
     3
100
AcDbDimStyleTable
 71
     1
340
27
  0
DIMSTYLE
105
27
102
{ACAD_REACTORS
330
A4A0
330
A4AE
330
A4CD
330
A4DA
330
A4F4
330
A503
330
A51F
102
}
330
A
100
AcDbSymbolTableRecord
100
AcDbDimStyleTableRecord
  2
ISO-25
 70
     0
 41
5.0
 42
2.0
 43
3.75
 44
5.0
 73
     0
 74
     0
 77
     1
 78
     8
140
6.0
141
2.5
143
0.1
147
3.0
171
     3
172
     1
176
     7
177
     7
271
     2
272
     2
274
     3
283
     0
284
     8
340
11
371
     9
372
     9
  0
DIMSTYLE
105
AC
330
A
100
AcDbSymbolTableRecord
100
AcDbDimStyleTableRecord
  2
JIS
 70
     0
 41
2.5
 42
1.0
 43
7.0
 44
1.0
 73
     0
 74
     0
 77
     1
 78
     8
140
2.5
141
0.0
143
0.0394
147
0.0
172
     1
174
     1
175
     1
340
11
  0
DIMSTYLE
105
61DD
330
A
100
AcDbSymbolTableRecord
100
AcDbDimStyleTableRecord
  2
ｺﾋﾟｰ - ISO-25
 70
     0
 41
2.5
 42
0.625
 43
3.75
 44
1.25
 73
     0
 74
     0
 77
     1
 78
     8
140
2.5
141
2.5
143
0.03937007874016
147
0.625
171
     3
172
     1
271
     2
272
     2
274
     3
283
     0
284
     8
340
11
343
61D8
  0
ENDTAB
  0
TABLE
  2
BLOCK_RECORD
  5
1
330
0
100
AcDbSymbolTable
 70
     9
  0
BLOCK_RECORD
  5
1F
330
1
100
AcDbSymbolTableRecord
100
AcDbBlockTableRecord
  2
*Model_Space
340
22
  0
BLOCK_RECORD
  5
1B
330
1
100
AcDbSymbolTableRecord
100
AcDbBlockTableRecord
  2
*Paper_Space
340
1E
  0
BLOCK_RECORD
  5
23
330
1
100
AcDbSymbolTableRecord
100
AcDbBlockTableRecord
  2
*Paper_Space0
340
26
  0
BLOCK_RECORD
  5
61D8
330
1
100
AcDbSymbolTableRecord
100
AcDbBlockTableRecord
  2
_Dot
340
0
  0
BLOCK_RECORD
  5
A4A1
330
1
100
AcDbSymbolTableRecord
100
AcDbBlockTableRecord
  2
*D2
340
0
  0
BLOCK_RECORD
  5
A4AF
330
1
100
AcDbSymbolTableRecord
100
AcDbBlockTableRecord
  2
*D3
340
0
  0
BLOCK_RECORD
  5
A4CE
330
1
100
AcDbSymbolTableRecord
100
AcDbBlockTableRecord
  2
*D4
340
0
  0
BLOCK_RECORD
  5
A4DB
330
1
100
AcDbSymbolTableRecord
100
AcDbBlockTableRecord
  2
*D5
340
0
  0
BLOCK_RECORD
  5
A4F5
330
1
100
AcDbSymbolTableRecord
100
AcDbBlockTableRecord
  2
*D6
340
0
  0
BLOCK_RECORD
  5
A504
330
1
100
AcDbSymbolTableRecord
100
AcDbBlockTableRecord
  2
*D7
340
0
  0
BLOCK_RECORD
  5
A520
330
1
100
AcDbSymbolTableRecord
100
AcDbBlockTableRecord
  2
*D8
340
0
  0
ENDTAB
  0
ENDSEC
  0
SECTION
  2
BLOCKS
  0
BLOCK
  5
20
330
1F
100
AcDbEntity
  8
0
100
AcDbBlockBegin
  2
*Model_Space
 70
     0
 10
0.0
 20
0.0
 30
0.0
  3
*Model_Space
  1

  0
ENDBLK
  5
21
330
1F
100
AcDbEntity
  8
0
100
AcDbBlockEnd
  0
BLOCK
  5
1C
330
1B
100
AcDbEntity
 67
     1
  8
0
100
AcDbBlockBegin
  2
*Paper_Space
 70
     0
 10
0.0
 20
0.0
 30
0.0
  3
*Paper_Space
  1

  0
ENDBLK
  5
1D
330
1B
100
AcDbEntity
 67
     1
  8
0
100
AcDbBlockEnd
  0
BLOCK
  5
24
330
23
100
AcDbEntity
  8
0
100
AcDbBlockBegin
  2
*Paper_Space0
 70
     0
 10
0.0
 20
0.0
 30
0.0
  3
*Paper_Space0
  1

  0
VIEWPORT
  5
922
330
23
100
AcDbEntity
  8
0
100
AcDbViewport
 10
0.0
 20
0.0
 30
0.0
 40
0.0
 41
0.0
 69
     0
 12
0.0
 22
0.0
 13
0.0
 23
0.0
 14
10.0
 24
10.0
 15
10.0
 25
10.0
 16
0.0
 26
0.0
 36
1.0
 17
0.0
 27
0.0
 37
0.0
 42
50.0
 43
0.0
 44
0.0
 45
0.0
 50
0.0
 51
0.0
 72
   100
 90
    32800
  1

281
     0
 71
     1
 74
     0
110
0.0
120
0.0
130
0.0
111
1.0
121
0.0
131
0.0
112
0.0
122
1.0
132
0.0
 79
     0
146
0.0
  0
VIEWPORT
  5
924
330
23
100
AcDbEntity
  8
0
100
AcDbViewport
 10
0.0
 20
0.0
 30
0.0
 40
0.0
 41
0.0
 69
     0
 12
8199.401833840978
 22
6162.095030619208
 13
0.0
 23
0.0
 14
10.0
 24
10.0
 15
10.0
 25
10.0
 16
0.0
 26
0.0
 36
1.0
 17
0.0
 27
0.0
 37
0.0
 42
50.0
 43
0.0
 44
0.0
 45
12844.48115925182
 50
0.0
 51
0.0
 72
   100
 90
    32864
  1

281
     0
 71
     1
 74
     0
110
0.0
120
0.0
130
0.0
111
1.0
121
0.0
131
0.0
112
0.0
122
1.0
132
0.0
 79
     0
146
0.0
  0
ENDBLK
  5
25
330
23
100
AcDbEntity
  8
0
100
AcDbBlockEnd
  0
BLOCK
  5
61DB
330
61D8
100
AcDbEntity
  8
0
100
AcDbBlockBegin
  2
_Dot
 70
     0
 10
0.0
 20
0.0
 30
0.0
  3
_Dot
  1

  0
LWPOLYLINE
  5
61D9
330
61D8
100
AcDbEntity
  8
0
 62
     0
100
AcDbPolyline
 90
        2
 70
     1
 43
0.5
 10
-0.25
 20
0.0
 42
1.0
 10
0.25
 20
0.0
 42
1.0
  0
LINE
  5
61DA
330
61D8
100
AcDbEntity
  8
0
 62
     0
370
    -2
100
AcDbLine
 10
-0.5
 20
0.0
 30
0.0
 11
-1.0
 21
0.0
 31
0.0
  0
ENDBLK
  5
61DC
330
61D8
100
AcDbEntity
  8
0
100
AcDbBlockEnd
  0
BLOCK
  5
A4AB
330
A4A1
100
AcDbEntity
  8
0
 48
0.5
100
AcDbBlockBegin
  2
*D2
 70
     1
 10
0.0
 20
0.0
 30
0.0
  3
*D2
  1

  0
LINE
  5
A559
330
A4A1
100
AcDbEntity
  8
0
 62
     7
 48
0.5
370
     9
100
AcDbLine
 10
365.584390633212
 20
1304.302837934469
 30
0.0
 11
358.1401292032456
 21
1304.302837934469
 31
0.0
  0
LINE
  5
A55A
330
A4A1
100
AcDbEntity
  8
0
 62
     7
 48
0.5
370
     9
100
AcDbLine
 10
365.584390633212
 20
1191.540751266739
 30
0.0
 11
358.1401292032456
 21
1191.540751266739
 31
0.0
  0
LINE
  5
A55B
330
A4A1
100
AcDbEntity
  8
0
 62
     7
 48
0.5
370
     9
100
AcDbLine
 10
363.1401292032455
 20
1299.302837934469
 30
0.0
 11
363.1401292032455
 21
1196.540751266739
 31
0.0
  0
SOLID
  5
A55C
330
A4A1
100
AcDbEntity
  8
0
 62
     7
 48
0.5
100
AcDbTrace
 10
362.3067958699122
 20
1299.302837934469
 30
0.0
 11
363.9734625365789
 21
1299.302837934469
 31
0.0
 12
363.1401292032455
 22
1304.302837934469
 32
0.0
 13
363.1401292032455
 23
1304.302837934469
 33
0.0
  0
SOLID
  5
A55D
330
A4A1
100
AcDbEntity
  8
0
 62
     7
 48
0.5
100
AcDbTrace
 10
362.3067958699122
 20
1196.540751266739
 30
0.0
 11
363.9734625365789
 21
1196.540751266739
 31
0.0
 12
363.1401292032455
 22
1191.540751266739
 32
0.0
 13
363.1401292032455
 23
1191.540751266739
 33
0.0
  0
MTEXT
  5
A55E
330
A4A1
100
AcDbEntity
  8
0
 62
     0
 48
0.5
100
AcDbMText
 10
357.1401292032453
 20
1247.921794600604
 30
0.0
 40
6.0
 41
0.0
 71
     5
 72
     1
  1
112
 11
0.0000000000000001
 21
1.0
 31
0.0
 73
     1
 44
1.0
  0
POINT
  5
A55F
330
A4A1
100
AcDbEntity
  8
Defpoints
 62
     0
 48
0.5
100
AcDbPoint
 10
367.584390633212
 20
1304.302837934469
 30
0.0
  0
POINT
  5
A560
330
A4A1
100
AcDbEntity
  8
Defpoints
 62
     0
 48
0.5
100
AcDbPoint
 10
367.584390633212
 20
1191.540751266739
 30
0.0
  0
POINT
  5
A561
330
A4A1
100
AcDbEntity
  8
Defpoints
 62
     0
 48
0.5
100
AcDbPoint
 10
363.1401292032455
 20
1191.540751266739
 30
0.0
  0
ENDBLK
  5
A4AC
330
A4A1
100
AcDbEntity
  8
0
 48
0.5
100
AcDbBlockEnd
  0
BLOCK
  5
A4B9
330
A4AF
100
AcDbEntity
  8
0
 48
0.5
100
AcDbBlockBegin
  2
*D3
 70
     1
 10
0.0
 20
0.0
 30
0.0
  3
*D3
  1

  0
LINE
  5
A550
330
A4AF
100
AcDbEntity
  8
0
 62
     7
 48
0.5
370
     9
100
AcDbLine
 10
329.9445736456409
 20
1254.364898028629
 30
0.0
 11
342.3915219441337
 21
1254.364898028629
 31
0.0
  0
LINE
  5
A551
330
A4AF
100
AcDbEntity
  8
0
 62
     7
 48
0.5
370
     9
100
AcDbLine
 10
329.9445736456409
 20
1191.540751266739
 30
0.0
 11
342.3915219441337
 21
1191.540751266739
 31
0.0
  0
LINE
  5
A552
330
A4AF
100
AcDbEntity
  8
0
 62
     7
 48
0.5
370
     9
100
AcDbLine
 10
337.3915219441337
 20
1249.364898028629
 30
0.0
 11
337.3915219441337
 21
1196.540751266739
 31
0.0
  0
SOLID
  5
A553
330
A4AF
100
AcDbEntity
  8
0
 62
     7
 48
0.5
100
AcDbTrace
 10
336.5581886108004
 20
1249.364898028629
 30
0.0
 11
338.224855277467
 21
1249.364898028629
 31
0.0
 12
337.3915219441337
 22
1254.364898028629
 32
0.0
 13
337.3915219441337
 23
1254.364898028629
 33
0.0
  0
SOLID
  5
A554
330
A4AF
100
AcDbEntity
  8
0
 62
     7
 48
0.5
100
AcDbTrace
 10
336.5581886108004
 20
1196.540751266739
 30
0.0
 11
338.224855277467
 21
1196.540751266739
 31
0.0
 12
337.3915219441337
 22
1191.540751266739
 32
0.0
 13
337.3915219441337
 23
1191.540751266739
 33
0.0
  0
MTEXT
  5
A555
330
A4AF
100
AcDbEntity
  8
0
 62
     0
 48
0.5
100
AcDbMText
 10
331.3915219441335
 20
1222.952824647683
 30
0.0
 40
6.0
 41
0.0
 71
     5
 72
     1
  1
62
 11
0.0000000000000001
 21
1.0
 31
0.0
 73
     1
 44
1.0
  0
POINT
  5
A556
330
A4AF
100
AcDbEntity
  8
Defpoints
 62
     0
 48
0.5
100
AcDbPoint
 10
327.9445736456409
 20
1254.364898028629
 30
0.0
  0
POINT
  5
A557
330
A4AF
100
AcDbEntity
  8
Defpoints
 62
     0
 48
0.5
100
AcDbPoint
 10
327.9445736456409
 20
1191.540751266739
 30
0.0
  0
POINT
  5
A558
330
A4AF
100
AcDbEntity
  8
Defpoints
 62
     0
 48
0.5
100
AcDbPoint
 10
337.3915219441337
 20
1191.540751266739
 30
0.0
  0
ENDBLK
  5
A4BA
330
A4AF
100
AcDbEntity
  8
0
 48
0.5
100
AcDbBlockEnd
  0
BLOCK
  5
A4D8
330
A4CE
100
AcDbEntity
  8
0
 48
0.5
100
AcDbBlockBegin
  2
*D4
 70
     1
 10
0.0
 20
0.0
 30
0.0
  3
*D4
  1

  0
LINE
  5
A602
330
A4CE
100
AcDbEntity
  8
0
 62
     7
 48
0.5
370
     9
100
AcDbLine
 10
214.8120328371089
 20
1067.265580212441
 30
0.0
 11
239.2985940059356
 21
1067.265580212441
 31
0.0
  0
LINE
  5
A603
330
A4CE
100
AcDbEntity
  8
0
 62
     7
 48
0.5
370
     9
100
AcDbLine
 10
214.8120328371089
 20
995.5155802124419
 30
0.0
 11
239.2985940059356
 21
995.5155802124419
 31
0.0
  0
LINE
  5
A604
330
A4CE
100
AcDbEntity
  8
0
 62
     7
 48
0.5
370
     9
100
AcDbLine
 10
234.2985940059356
 20
1062.265580212441
 30
0.0
 11
234.2985940059356
 21
1000.515580212441
 31
0.0
  0
SOLID
  5
A605
330
A4CE
100
AcDbEntity
  8
0
 62
     7
 48
0.5
100
AcDbTrace
 10
233.4652606726023
 20
1062.265580212441
 30
0.0
 11
235.131927339269
 21
1062.265580212441
 31
0.0
 12
234.2985940059356
 22
1067.265580212441
 32
0.0
 13
234.2985940059356
 23
1067.265580212441
 33
0.0
  0
SOLID
  5
A606
330
A4CE
100
AcDbEntity
  8
0
 62
     7
 48
0.5
100
AcDbTrace
 10
233.4652606726023
 20
1000.515580212441
 30
0.0
 11
235.131927339269
 21
1000.515580212441
 31
0.0
 12
234.2985940059356
 22
995.5155802124419
 32
0.0
 13
234.2985940059356
 23
995.5155802124419
 33
0.0
  0
MTEXT
  5
A607
330
A4CE
100
AcDbEntity
  8
0
 62
     0
 48
0.5
100
AcDbMText
 10
228.2985940059355
 20
1031.390580212441
 30
0.0
 40
6.0
 41
0.0
 71
     5
 72
     1
  1
71.75
 11
0.0000000000000001
 21
1.0
 31
0.0
 73
     1
 44
1.0
  0
POINT
  5
A608
330
A4CE
100
AcDbEntity
  8
Defpoints
 62
     0
 48
0.5
100
AcDbPoint
 10
212.8120328371089
 20
1067.265580212441
 30
0.0
  0
POINT
  5
A609
330
A4CE
100
AcDbEntity
  8
Defpoints
 62
     0
 48
0.5
100
AcDbPoint
 10
212.8120328371089
 20
995.5155802124419
 30
0.0
  0
POINT
  5
A60A
330
A4CE
100
AcDbEntity
  8
Defpoints
 62
     0
 48
0.5
100
AcDbPoint
 10
234.2985940059356
 20
995.5155802124419
 30
0.0
  0
ENDBLK
  5
A4D9
330
A4CE
100
AcDbEntity
  8
0
 48
0.5
100
AcDbBlockEnd
  0
BLOCK
  5
A4E7
330
A4DB
100
AcDbEntity
  8
0
 48
0.5
100
AcDbBlockBegin
  2
*D5
 70
     1
 10
0.0
 20
0.0
 30
0.0
  3
*D5
  1

  0
LINE
  5
A616
330
A4DB
100
AcDbEntity
  8
0
 62
     7
 48
0.5
370
     9
100
AcDbLine
 10
217.8120328371089
 20
1062.265580212441
 30
0.0
 11
229.4985147315319
 21
1062.265580212441
 31
0.0
  0
LINE
  5
A617
330
A4DB
100
AcDbEntity
  8
0
 62
     7
 48
0.5
370
     9
100
AcDbLine
 10
217.8120328371089
 20
1059.765580212441
 30
0.0
 11
229.4985147315319
 21
1059.765580212441
 31
0.0
  0
LINE
  5
A618
330
A4DB
100
AcDbEntity
  8
0
 62
     7
 48
0.5
370
     9
100
AcDbLine
 10
224.4985147315318
 20
1054.765580212442
 30
0.0
 11
224.4985147315318
 21
1049.765580212441
 31
0.0
  0
LINE
  5
A619
330
A4DB
100
AcDbEntity
  8
0
 62
     7
 48
0.5
370
     9
100
AcDbLine
 10
224.4985147315318
 20
1067.265580212441
 30
0.0
 11
224.4985147315319
 21
1090.83700878387
 31
0.0
  0
LINE
  5
A61A
330
A4DB
100
AcDbEntity
  8
0
 62
     7
 48
0.5
370
     9
100
AcDbLine
 10
224.4985147315318
 20
1059.765580212441
 30
0.0
 11
224.4985147315318
 21
1062.265580212441
 31
0.0
  0
SOLID
  5
A61B
330
A4DB
100
AcDbEntity
  8
0
 62
     7
 48
0.5
100
AcDbTrace
 10
223.6651813981985
 20
1054.765580212442
 30
0.0
 11
225.3318480648652
 21
1054.765580212442
 31
0.0
 12
224.4985147315318
 22
1059.765580212441
 32
0.0
 13
224.4985147315318
 23
1059.765580212441
 33
0.0
  0
SOLID
  5
A61C
330
A4DB
100
AcDbEntity
  8
0
 62
     7
 48
0.5
100
AcDbTrace
 10
223.6651813981985
 20
1067.265580212441
 30
0.0
 11
225.3318480648652
 21
1067.265580212441
 31
0.0
 12
224.4985147315318
 22
1062.265580212441
 32
0.0
 13
224.4985147315318
 23
1062.265580212441
 33
0.0
  0
MTEXT
  5
A61D
330
A4DB
100
AcDbEntity
  8
0
 62
     0
 48
0.5
100
AcDbMText
 10
218.4985147315317
 20
1081.551294498156
 30
0.0
 40
6.0
 41
0.0
 71
     5
 72
     1
  1
2.5
 11
0.0000000000000001
 21
1.0
 31
0.0
 73
     1
 44
1.0
  0
POINT
  5
A61E
330
A4DB
100
AcDbEntity
  8
Defpoints
 62
     0
 48
0.5
100
AcDbPoint
 10
215.8120328371089
 20
1062.265580212441
 30
0.0
  0
POINT
  5
A61F
330
A4DB
100
AcDbEntity
  8
Defpoints
 62
     0
 48
0.5
100
AcDbPoint
 10
215.8120328371089
 20
1059.765580212441
 30
0.0
  0
POINT
  5
A620
330
A4DB
100
AcDbEntity
  8
Defpoints
 62
     0
 48
0.5
100
AcDbPoint
 10
224.4985147315318
 20
1059.765580212441
 30
0.0
  0
ENDBLK
  5
A4E8
330
A4DB
100
AcDbEntity
  8
0
 48
0.5
100
AcDbBlockEnd
  0
BLOCK
  5
A501
330
A4F5
100
AcDbEntity
  8
0
 48
0.5
100
AcDbBlockBegin
  2
*D6
 70
     1
 10
0.0
 20
0.0
 30
0.0
  3
*D6
  1

  0
LINE
  5
A5F7
330
A4F5
100
AcDbEntity
  8
0
 62
     7
 48
0.5
370
     9
100
AcDbLine
 10
234.3120328371089
 20
920.1914334505522
 30
0.0
 11
234.3120328371089
 21
923.487764477546
 31
0.0
  0
LINE
  5
A5F8
330
A4F5
100
AcDbEntity
  8
0
 62
     7
 48
0.5
370
     9
100
AcDbLine
 10
236.1120328371089
 20
920.1914334505522
 30
0.0
 11
236.1120328371089
 21
923.487764477546
 31
0.0
  0
LINE
  5
A5F9
330
A4F5
100
AcDbEntity
  8
0
 62
     7
 48
0.5
370
     9
100
AcDbLine
 10
229.3120328371089
 20
918.4877644775459
 30
0.0
 11
224.3120328371089
 21
918.4877644775459
 31
0.0
  0
LINE
  5
A5FA
330
A4F5
100
AcDbEntity
  8
0
 62
     7
 48
0.5
370
     9
100
AcDbLine
 10
241.1120328371089
 20
918.4877644775459
 30
0.0
 11
263.8263185513947
 21
918.4877644775459
 31
0.0
  0
LINE
  5
A5FB
330
A4F5
100
AcDbEntity
  8
0
 62
     7
 48
0.5
370
     9
100
AcDbLine
 10
234.3120328371089
 20
918.4877644775459
 30
0.0
 11
236.1120328371089
 21
918.4877644775459
 31
0.0
  0
SOLID
  5
A5FC
330
A4F5
100
AcDbEntity
  8
0
 62
     7
 48
0.5
100
AcDbTrace
 10
229.3120328371089
 20
919.3210978108792
 30
0.0
 11
229.3120328371089
 21
917.6544311442127
 31
0.0
 12
234.3120328371089
 22
918.4877644775459
 32
0.0
 13
234.3120328371089
 23
918.4877644775459
 33
0.0
  0
SOLID
  5
A5FD
330
A4F5
100
AcDbEntity
  8
0
 62
     7
 48
0.5
100
AcDbTrace
 10
241.1120328371089
 20
919.3210978108792
 30
0.0
 11
241.1120328371089
 21
917.6544311442127
 31
0.0
 12
236.1120328371089
 22
918.4877644775459
 32
0.0
 13
236.1120328371089
 23
918.4877644775459
 33
0.0
  0
MTEXT
  5
A5FE
330
A4F5
100
AcDbEntity
  8
0
 62
     0
 48
0.5
100
AcDbMText
 10
254.9691756942518
 20
924.487764477546
 30
0.0
 40
6.0
 41
0.0
 71
     5
 72
     1
  1
1.8
 73
     1
 44
1.0
  0
POINT
  5
A5FF
330
A4F5
100
AcDbEntity
  8
Defpoints
 62
     0
 48
0.5
100
AcDbPoint
 10
234.3120328371089
 20
918.1914334505522
 30
0.0
  0
POINT
  5
A600
330
A4F5
100
AcDbEntity
  8
Defpoints
 62
     0
 48
0.5
100
AcDbPoint
 10
236.1120328371089
 20
918.1914334505522
 30
0.0
  0
POINT
  5
A601
330
A4F5
100
AcDbEntity
  8
Defpoints
 62
     0
 48
0.5
100
AcDbPoint
 10
236.1120328371089
 20
918.4877644775459
 30
0.0
  0
ENDBLK
  5
A502
330
A4F5
100
AcDbEntity
  8
0
 48
0.5
100
AcDbBlockEnd
  0
BLOCK
  5
A510
330
A504
100
AcDbEntity
  8
0
 48
0.5
100
AcDbBlockBegin
  2
*D7
 70
     1
 10
0.0
 20
0.0
 30
0.0
  3
*D7
  1

  0
LINE
  5
A5EC
330
A504
100
AcDbEntity
  8
0
 62
     7
 48
0.5
370
     9
100
AcDbLine
 10
222.3120328371089
 20
995.5155802124419
 30
0.0
 11
239.2985940059356
 21
995.5155802124419
 31
0.0
  0
LINE
  5
A5ED
330
A504
100
AcDbEntity
  8
0
 62
     7
 48
0.5
370
     9
100
AcDbLine
 10
222.3120328371089
 20
993.8824532994258
 30
0.0
 11
239.2985940059356
 21
993.8824532994258
 31
0.0
  0
LINE
  5
A5EE
330
A504
100
AcDbEntity
  8
0
 62
     7
 48
0.5
370
     9
100
AcDbLine
 10
234.2985940059356
 20
1000.515580212441
 30
0.0
 11
234.2985940059356
 21
1005.515580212442
 31
0.0
  0
LINE
  5
A5EF
330
A504
100
AcDbEntity
  8
0
 62
     7
 48
0.5
370
     9
100
AcDbLine
 10
234.2985940059356
 20
988.8824532994258
 30
0.0
 11
234.2985940059356
 21
973.8824532994257
 31
0.0
  0
LINE
  5
A5F0
330
A504
100
AcDbEntity
  8
0
 62
     7
 48
0.5
370
     9
100
AcDbLine
 10
234.2985940059356
 20
995.5155802124419
 30
0.0
 11
234.2985940059356
 21
993.8824532994258
 31
0.0
  0
SOLID
  5
A5F1
330
A504
100
AcDbEntity
  8
0
 62
     7
 48
0.5
100
AcDbTrace
 10
233.4652606726023
 20
1000.515580212441
 30
0.0
 11
235.131927339269
 21
1000.515580212441
 31
0.0
 12
234.2985940059356
 22
995.5155802124419
 32
0.0
 13
234.2985940059356
 23
995.5155802124419
 33
0.0
  0
SOLID
  5
A5F2
330
A504
100
AcDbEntity
  8
0
 62
     7
 48
0.5
100
AcDbTrace
 10
233.4652606726023
 20
988.8824532994258
 30
0.0
 11
235.131927339269
 21
988.8824532994258
 31
0.0
 12
234.2985940059356
 22
993.8824532994258
 32
0.0
 13
234.2985940059356
 23
993.8824532994258
 33
0.0
  0
MTEXT
  5
A5F3
330
A504
100
AcDbEntity
  8
0
 62
     0
 48
0.5
100
AcDbMText
 10
228.2985940059355
 20
978.8824532994258
 30
0.0
 40
6.0
 41
0.0
 71
     5
 72
     1
  1
2
 11
0.0000000000000001
 21
1.0
 31
0.0
 73
     1
 44
1.0
  0
POINT
  5
A5F4
330
A504
100
AcDbEntity
  8
Defpoints
 62
     0
 48
0.5
100
AcDbPoint
 10
220.3120328371089
 20
995.5155802124419
 30
0.0
  0
POINT
  5
A5F5
330
A504
100
AcDbEntity
  8
Defpoints
 62
     0
 48
0.5
100
AcDbPoint
 10
220.3120328371089
 20
993.8824532994258
 30
0.0
  0
POINT
  5
A5F6
330
A504
100
AcDbEntity
  8
Defpoints
 62
     0
 48
0.5
100
AcDbPoint
 10
234.2985940059356
 20
993.8824532994258
 30
0.0
  0
ENDBLK
  5
A511
330
A504
100
AcDbEntity
  8
0
 48
0.5
100
AcDbBlockEnd
  0
BLOCK
  5
A52C
330
A520
100
AcDbEntity
  8
0
 48
0.5
100
AcDbBlockBegin
  2
*D8
 70
     1
 10
0.0
 20
0.0
 30
0.0
  3
*D8
  1

  0
LINE
  5
A60B
330
A520
100
AcDbEntity
  8
0
 62
     7
 48
0.5
370
     9
100
AcDbLine
 10
208.8120328371089
 20
1043.390834405378
 30
0.0
 11
208.8120328371089
 21
1051.614340787801
 31
0.0
  0
LINE
  5
A60C
330
A520
100
AcDbEntity
  8
0
 62
     7
 48
0.5
370
     9
100
AcDbLine
 10
216.8120328371089
 20
1043.390834405378
 30
0.0
 11
216.8120328371089
 21
1051.614340787801
 31
0.0
  0
LINE
  5
A60D
330
A520
100
AcDbEntity
  8
0
 62
     7
 48
0.5
370
     9
100
AcDbLine
 10
221.8120328371089
 20
1046.614340787801
 30
0.0
 11
226.8120328371089
 21
1046.614340787801
 31
0.0
  0
LINE
  5
A60E
330
A520
100
AcDbEntity
  8
0
 62
     7
 48
0.5
370
     9
100
AcDbLine
 10
203.8120328371089
 20
1046.614340787801
 30
0.0
 11
183.3834614085375
 21
1046.614340787801
 31
0.0
  0
LINE
  5
A60F
330
A520
100
AcDbEntity
  8
0
 62
     7
 48
0.5
370
     9
100
AcDbLine
 10
216.8120328371089
 20
1046.614340787801
 30
0.0
 11
208.8120328371089
 21
1046.614340787801
 31
0.0
  0
SOLID
  5
A610
330
A520
100
AcDbEntity
  8
0
 62
     7
 48
0.5
100
AcDbTrace
 10
221.8120328371089
 20
1047.447674121134
 30
0.0
 11
221.8120328371089
 21
1045.781007454468
 31
0.0
 12
216.8120328371089
 22
1046.614340787801
 32
0.0
 13
216.8120328371089
 23
1046.614340787801
 33
0.0
  0
SOLID
  5
A611
330
A520
100
AcDbEntity
  8
0
 62
     7
 48
0.5
100
AcDbTrace
 10
203.8120328371089
 20
1047.447674121134
 30
0.0
 11
203.8120328371089
 21
1045.781007454468
 31
0.0
 12
208.8120328371089
 22
1046.614340787801
 32
0.0
 13
208.8120328371089
 23
1046.614340787801
 33
0.0
  0
MTEXT
  5
A612
330
A520
100
AcDbEntity
  8
0
 62
     0
 48
0.5
100
AcDbMText
 10
191.0977471228232
 20
1052.614340787801
 30
0.0
 40
6.0
 41
0.0
 71
     5
 72
     1
  1
%%c8
 73
     1
 44
1.0
  0
POINT
  5
A613
330
A520
100
AcDbEntity
  8
Defpoints
 62
     0
 48
0.5
100
AcDbPoint
 10
208.8120328371089
 20
1041.390834405378
 30
0.0
  0
POINT
  5
A614
330
A520
100
AcDbEntity
  8
Defpoints
 62
     0
 48
0.5
100
AcDbPoint
 10
216.8120328371089
 20
1041.390834405378
 30
0.0
  0
POINT
  5
A615
330
A520
100
AcDbEntity
  8
Defpoints
 62
     0
 48
0.5
100
AcDbPoint
 10
216.8120328371089
 20
1046.614340787801
 30
0.0
  0
ENDBLK
  5
A52D
330
A520
100
AcDbEntity
  8
0
 48
0.5
100
AcDbBlockEnd
  0
ENDSEC
  0
SECTION
  2
ENTITIES
  0
LINE
  5
60DA
330
1F
100
AcDbEntity
  8
２
 62
     0
370
    20
100
AcDbLine
 10
-113.6069841392893
 20
817.5308658634676
 30
0.0
 11
682.3930158607106
 21
817.5308658634676
 31
0.0
  0
LINE
  5
60DB
330
1F
100
AcDbEntity
  8
２
 62
     0
 48
25.0
100
AcDbLine
 10
-113.6069841392893
 20
837.5308658634676
 30
0.0
 11
682.3930158607106
 21
837.5308658634676
 31
0.0
  0
LINE
  5
60DC
330
1F
100
AcDbEntity
  8
２
 62
     0
 48
25.0
100
AcDbLine
 10
-113.6069841392893
 20
837.5308658634676
 30
0.0
 11
682.3930158607106
 21
837.5308658634676
 31
0.0
  0
LINE
  5
60DD
330
1F
100
AcDbEntity
  8
0
 62
     0
 48
25.0
100
AcDbLine
 10
279.1215549150597
 20
837.5308658634676
 30
0.0
 11
318.4215549150597
 21
837.5308658634676
 31
0.0
  0
LINE
  5
60DE
330
1F
100
AcDbEntity
  8
２
 62
     0
370
    20
100
AcDbLine
 10
682.3930158607106
 20
817.5308658634676
 30
0.0
 11
-67.60698413928935
 21
817.5308658634678
 31
0.0
  0
LINE
  5
60DF
330
1F
100
AcDbEntity
  8
１
 62
     0
 48
25.0
100
AcDbLine
 10
-103.8208647361605
 20
827.5308658634676
 30
0.0
 11
173.6637676806376
 21
827.5308658634671
 31
0.0
  0
LINE
  5
60E0
330
1F
100
AcDbEntity
  8
１
 62
     0
 48
25.0
100
AcDbLine
 10
173.6637676806376
 20
822.5308658634673
 30
0.0
 11
-103.8208647361605
 21
822.5308658634672
 31
0.0
  0
LINE
  5
60E1
330
1F
100
AcDbEntity
  8
１
 62
     0
 48
25.0
100
AcDbLine
 10
173.6637676806376
 20
832.5308658634677
 30
0.0
 11
-103.8208647361605
 21
832.5308658634677
 31
0.0
  0
LINE
  5
60E2
330
1F
100
AcDbEntity
  8
0
 62
     0
100
AcDbLine
 10
-67.60698413928935
 20
817.5308658634676
 30
0.0
 11
-113.6069841392893
 21
817.5308658634676
 31
0.0
  0
LINE
  5
60E3
330
1F
100
AcDbEntity
  8
２
 62
     0
 48
25.0
100
AcDbLine
 10
-107.8208647361605
 20
837.5308658634676
 30
0.0
 11
-107.8208647361605
 21
817.5308658634676
 31
0.0
  0
LINE
  5
60E4
330
1F
100
AcDbEntity
  8
２
 62
     0
 48
25.0
100
AcDbLine
 10
-113.6069841392893
 20
817.5308658634676
 30
0.0
 11
-117.6069841392893
 21
817.5308658634676
 31
0.0
  0
LINE
  5
60E5
330
1F
100
AcDbEntity
  8
２
 62
     0
 48
25.0
100
AcDbLine
 10
-117.6069841392893
 20
817.6093089910487
 30
0.0
 11
-117.6069841392893
 21
817.5308658634676
 31
0.0
  0
LINE
  5
60E6
330
1F
100
AcDbEntity
  8
0
 62
     0
 48
25.0
100
AcDbLine
 10
-113.6069841392893
 20
837.5308658634676
 30
0.0
 11
-107.8208647361605
 21
837.5308658634676
 31
0.0
  0
MTEXT
  5
60E7
330
1F
100
AcDbEntity
  8
２
 62
     0
 48
25.0
100
AcDbMText
 10
-112.2139241392893
 20
827.5308658634678
 30
0.0
 40
4.5
 41
9.78612
 71
     5
 72
     5
  1
記\P事
 73
     1
 44
1.0
  0
LINE
  5
60E8
330
1F
100
AcDbEntity
  8
２
 62
     0
 48
25.0
100
AcDbLine
 10
-113.6069841392893
 20
837.5308658634676
 30
0.0
 11
-117.6069841392893
 21
837.5308658634676
 31
0.0
  0
LINE
  5
60E9
330
1F
100
AcDbEntity
  8
１
 62
     0
 48
25.0
100
AcDbLine
 10
-103.8208647361605
 20
822.5308658634672
 30
0.0
 11
-107.8208647361605
 21
822.5308658634672
 31
0.0
  0
LINE
  5
60EA
330
1F
100
AcDbEntity
  8
１
 62
     0
 48
25.0
100
AcDbLine
 10
-103.8208647361605
 20
827.5308658634676
 30
0.0
 11
-107.8208647361605
 21
827.5308658634676
 31
0.0
  0
LINE
  5
60EB
330
1F
100
AcDbEntity
  8
１
 62
     0
 48
25.0
100
AcDbLine
 10
-103.8208647361605
 20
832.5308658634677
 30
0.0
 11
-107.8208647361605
 21
832.5308658634677
 31
0.0
  0
LINE
  5
60EC
330
1F
100
AcDbEntity
  8
２
 62
     0
 48
25.0
100
AcDbLine
 10
173.6637676806376
 20
837.5308658634676
 30
0.0
 11
279.1215549150597
 21
837.5308658634676
 31
0.0
  0
LINE
  5
60ED
330
1F
100
AcDbEntity
  8
１
 62
     0
 48
25.0
100
AcDbLine
 10
173.6637676806376
 20
827.5308658634676
 30
0.0
 11
279.1215549150597
 21
827.5308658634676
 31
0.0
  0
MTEXT
  5
60EE
330
1F
100
AcDbEntity
  8
２
 62
     0
 48
25.0
100
AcDbMText
 10
193.3117526806377
 20
822.5308658634677
 30
0.0
 40
6.0
 41
39.296
 71
     5
 72
     5
  1
作図者
 73
     1
 44
1.0
  0
MTEXT
  5
60EF
330
1F
100
AcDbEntity
  8
２
 62
     0
 48
25.0
100
AcDbMText
 10
194.0347626806376
 20
832.5308658634677
 30
0.0
 40
6.0
 41
40.742
 71
     5
 72
     5
  1
作図日
 73
     1
 44
1.0
  0
LINE
  5
60F0
330
1F
100
AcDbEntity
  8
２
 62
     0
 48
25.0
100
AcDbLine
 10
173.6637676806376
 20
827.5308658634671
 30
0.0
 11
173.6637676806376
 21
817.5308658634676
 31
0.0
  0
LINE
  5
60F1
330
1F
100
AcDbEntity
  8
２
 62
     0
 48
25.0
100
AcDbLine
 10
173.6637676806376
 20
837.5308658634676
 30
0.0
 11
173.6637676806376
 21
817.5308658634676
 31
0.0
  0
LINE
  5
60F2
330
1F
100
AcDbEntity
  8
0
 62
     0
 48
25.0
100
AcDbLine
 10
173.6637676806376
 20
837.5308658634676
 30
0.0
 11
173.6637676806376
 21
827.5308658634676
 31
0.0
  0
LINE
  5
60F3
330
1F
100
AcDbEntity
  8
２
 62
     0
 48
25.0
100
AcDbLine
 10
212.9597354275438
 20
837.5308658634676
 30
0.0
 11
212.9597354275438
 21
817.5308658634676
 31
0.0
  0
MTEXT
  5
60F4
330
1F
100
AcDbEntity
  8
２
 62
     0
 48
25.0
100
AcDbMText
 10
246.0406454275439
 20
832.5308658634677
 30
0.0
 40
3.5
 41
66.16179999999999
 71
     5
 72
     5
  1
2017-4-19
 73
     1
 44
1.0
  0
MTEXT
  5
60F5
330
1F
100
AcDbEntity
  8
２
 62
     0
 48
25.0
100
AcDbMText
 10
246.0406454275439
 20
822.5308658634677
 30
0.0
 40
3.5
 41
66.16182000000001
 71
     5
 72
     5
  1
E.Nomura
 73
     1
 44
1.0
  0
LINE
  5
60F6
330
1F
100
AcDbEntity
  8
２
 62
     0
 48
25.0
100
AcDbLine
 10
279.1215549150597
 20
837.5308658634677
 30
0.0
 11
279.1215549150597
 21
817.5308658634678
 31
0.0
  0
LINE
  5
60F7
330
1F
100
AcDbEntity
  8
１
 62
     0
 48
25.0
100
AcDbLine
 10
318.4215549150597
 20
827.5308658634676
 30
0.0
 11
528.649591227999
 21
827.5308658634676
 31
0.0
  0
LINE
  5
60F8
330
1F
100
AcDbEntity
  8
0
 62
     0
 48
25.0
100
AcDbLine
 10
341.3965544355929
 20
837.5308658634676
 30
0.0
 11
460.2880544355928
 21
837.5308658634676
 31
0.0
  0
MTEXT
  5
60F9
330
1F
100
AcDbEntity
  8
２
 62
     0
 48
25.0
100
AcDbMText
 10
338.0715549150596
 20
822.5308658634677
 30
0.0
 40
6.0
 41
39.29999999999999
 71
     5
 72
     5
  1
図　　名
 73
     1
 44
1.0
  0
MTEXT
  5
60FA
330
1F
100
AcDbEntity
  8
２
 62
     0
 48
25.0
100
AcDbMText
 10
338.0715549150596
 20
832.5308658634677
 30
0.0
 40
6.0
 41
39.29999999999999
 71
     5
 72
     5
  1
物件名称
 73
     1
 44
1.0
  0
LINE
  5
60FB
330
1F
100
AcDbEntity
  8
0
 62
     0
 48
25.0
100
AcDbLine
 10
318.4215549150597
 20
837.5308658634676
 30
0.0
 11
357.7215549150596
 21
837.5308658634676
 31
0.0
  0
MTEXT
  5
60FC
330
1F
100
AcDbEntity
  8
２
 62
     0
 48
25.0
100
AcDbMText
 10
298.2565124150596
 20
827.5308658634678
 30
0.0
 40
4.5
 41
32.06989999999999
 71
     5
 72
     5
  1
Ｓ＝1/2
 73
     1
 44
1.0
  0
LINE
  5
60FD
330
1F
100
AcDbEntity
  8
２
 62
     0
 48
25.0
100
AcDbLine
 10
318.4215549150597
 20
837.5308658634676
 30
0.0
 11
318.4215549150597
 21
817.5308658634676
 31
0.0
  0
LINE
  5
60FE
330
1F
100
AcDbEntity
  8
0
 62
     0
 48
25.0
100
AcDbLine
 10
318.4215549150597
 20
837.5308658634676
 30
0.0
 11
318.4215549150597
 21
817.5308658634676
 31
0.0
  0
LINE
  5
60FF
330
1F
100
AcDbEntity
  8
２
 62
     0
 48
25.0
100
AcDbLine
 10
357.7215549150596
 20
837.5308658634676
 30
0.0
 11
357.7215549150596
 21
817.5308658634676
 31
0.0
  0
LINE
  5
6100
330
1F
100
AcDbEntity
  8
２
 62
     0
 48
25.0
100
AcDbLine
 10
528.649591227999
 20
837.5308658634676
 30
0.0
 11
528.649591227999
 21
817.5308658634676
 31
0.0
  0
MTEXT
  5
6101
330
1F
100
AcDbEntity
  8
２
 62
     0
 48
25.0
100
AcDbMText
 10
626.0641145896142
 20
827.5308658634678
 30
0.0
 40
6.0
 41
103.21335
 71
     5
 72
     5
  1
株式会社{\H1.25x; アルティマ}
 73
     1
 44
1.0
  0
ARC
  5
6102
330
1F
100
AcDbEntity
  8
Object
 62
     0
 48
0.3
100
AcDbCircle
 10
568.3681132541858
 20
824.3086653690383
 30
0.0
 40
4.049999999999999
100
AcDbArc
 50
180.0
 51
257.3448222610501
  0
LINE
  5
6103
102
{ACAD_REACTORS
330
6105
102
}
330
1F
100
AcDbEntity
  8
Object
 62
     0
 48
0.3
100
AcDbLine
 10
546.6185729416677
 20
834.8220867758399
 30
0.0
 11
549.3185729416677
 21
834.8220867758399
 31
0.0
  0
ARC
  5
6104
102
{ACAD_REACTORS
330
6105
102
}
330
1F
100
AcDbEntity
  8
Object
 62
     0
 48
0.3
100
AcDbCircle
 10
545.2685729416677
 20
824.29208677584
 30
0.0
 40
4.049999999999999
100
AcDbArc
 50
180.0
 51
0.0
  0
HATCH
  5
6105
330
1F
100
AcDbEntity
  8
Object
 62
     0
 48
0.3
100
AcDbHatch
 10
0.0
 20
0.0
 30
0.0
210
0.0
220
0.0
230
1.0
  2
ANSI31
 70
     0
 71
     1
 91
        1
 92
        1
 93
        8
 72
     1
 10
543.9185729416676
 20
834.8220867758399
 11
541.2185729416676
 21
834.8220867758399
 72
     1
 10
541.2185729416676
 20
834.8220867758399
 11
541.2185729416676
 21
824.29208677584
 72
     2
 10
545.2685729416677
 20
824.29208677584
 40
4.049999999999999
 50
180.0
 51
360.0
 73
     1
 72
     1
 10
549.3185729416677
 20
824.29208677584
 11
549.3185729416677
 21
834.8220867758399
 72
     1
 10
549.3185729416677
 20
834.8220867758399
 11
546.6185729416677
 21
834.8220867758399
 72
     1
 10
546.6185729416677
 20
834.8220867758399
 11
546.6185729416677
 21
824.29208677584
 72
     2
 10
545.2685729416677
 20
824.29208677584
 40
1.35
 50
360.0
 51
540.0
 73
     0
 72
     1
 10
543.9185729416676
 20
824.29208677584
 11
543.9185729416676
 21
834.8220867758399
 97
        8
330
610B
330
6106
330
6104
330
610D
330
6103
330
6108
330
6109
330
6107
 75
     0
 76
     1
 52
0.0
 41
0.01125
 77
     0
 78
     1
 53
45.0
 43
388.6807673218097
 44
717.6334720785245
 45
-0.025256970340507
 46
0.025256970340507
 79
     0
 98
        1
 10
388.6807673218097
 20
717.6334720785245
  0
LINE
  5
6106
102
{ACAD_REACTORS
330
6105
102
}
330
1F
100
AcDbEntity
  8
Object
 62
     0
 48
0.3
100
AcDbLine
 10
541.2185729416676
 20
824.29208677584
 30
0.0
 11
541.2185729416676
 21
834.8220867758399
 31
0.0
  0
LINE
  5
6107
102
{ACAD_REACTORS
330
6105
102
}
330
1F
100
AcDbEntity
  8
Object
 62
     0
 48
0.3
100
AcDbLine
 10
543.9185729416676
 20
834.8220867758399
 30
0.0
 11
543.9185729416676
 21
824.29208677584
 31
0.0
  0
LINE
  5
6108
102
{ACAD_REACTORS
330
6105
102
}
330
1F
100
AcDbEntity
  8
Object
 62
     0
 48
0.3
100
AcDbLine
 10
546.6185729416677
 20
834.8220867758399
 30
0.0
 11
546.6185729416677
 21
824.29208677584
 31
0.0
  0
ARC
  5
6109
102
{ACAD_REACTORS
330
6105
102
}
330
1F
100
AcDbEntity
  8
Object
 62
     0
 48
0.3
100
AcDbCircle
 10
545.2685729416677
 20
824.29208677584
 30
0.0
 40
1.35
100
AcDbArc
 50
180.0
 51
0.0
  0
LINE
  5
610A
330
1F
100
AcDbEntity
  8
Object
 62
     0
 48
0.3
100
AcDbLine
 10
541.2185729416676
 20
834.8220867758399
 30
0.0
 11
543.9185729416676
 21
834.8220867758399
 31
0.0
  0
LINE
  5
610B
102
{ACAD_REACTORS
330
6105
102
}
330
1F
100
AcDbEntity
  8
Object
 62
     0
 48
0.3
100
AcDbLine
 10
543.9185729416676
 20
834.8220867758399
 30
0.0
 11
541.2185729416676
 21
834.8220867758399
 31
0.0
  0
LINE
  5
610C
102
{ACAD_REACTORS
330
610F
102
}
330
1F
100
AcDbEntity
  8
Object
 62
     0
 48
0.3
100
AcDbLine
 10
556.5185729416677
 20
834.8220867758399
 30
0.0
 11
556.5185729416677
 21
822.9420867758401
 31
0.0
  0
LINE
  5
610D
102
{ACAD_REACTORS
330
6105
102
}
330
1F
100
AcDbEntity
  8
Object
 62
     0
 48
0.3
100
AcDbLine
 10
549.3185729416677
 20
834.8220867758399
 30
0.0
 11
549.3185729416677
 21
824.29208677584
 31
0.0
  0
LINE
  5
610E
102
{ACAD_REACTORS
330
610F
102
}
330
1F
100
AcDbEntity
  8
Object
 62
     0
 48
0.3
100
AcDbLine
 10
553.8185729416677
 20
834.8220867758399
 30
0.0
 11
553.8185729416677
 21
820.24208677584
 31
0.0
  0
HATCH
  5
610F
330
1F
100
AcDbEntity
  8
Object
 62
     0
 48
0.3
100
AcDbHatch
 10
0.0
 20
0.0
 30
0.0
210
0.0
220
0.0
230
1.0
  2
ANSI31
 70
     0
 71
     1
 91
        1
 92
        1
 93
        6
 72
     1
 10
553.8185729416677
 20
834.8220867758399
 11
556.5185729416677
 21
834.8220867758399
 72
     1
 10
556.5185729416677
 20
834.8220867758399
 11
556.5185729416677
 21
822.9420867758401
 72
     1
 10
556.5185729416677
 20
822.9420867758401
 11
561.9185729416677
 21
822.9420867758401
 72
     1
 10
561.9185729416677
 20
822.9420867758401
 11
561.9185729416677
 21
820.24208677584
 72
     1
 10
561.9185729416677
 20
820.24208677584
 11
553.8185729416677
 21
820.24208677584
 72
     1
 10
553.8185729416677
 20
820.24208677584
 11
553.8185729416677
 21
834.8220867758399
 97
        6
330
6113
330
610C
330
6112
330
6111
330
6110
330
610E
 75
     0
 76
     1
 52
0.0
 41
0.01125
 77
     0
 78
     1
 53
45.0
 43
388.6807673218097
 44
717.6334720785245
 45
-0.025256970340507
 46
0.025256970340507
 79
     0
 98
        1
 10
388.6807673218097
 20
717.6334720785245
  0
LINE
  5
6110
102
{ACAD_REACTORS
330
610F
102
}
330
1F
100
AcDbEntity
  8
Object
 62
     0
 48
0.3
100
AcDbLine
 10
553.8185729416677
 20
820.24208677584
 30
0.0
 11
561.9185729416677
 21
820.24208677584
 31
0.0
  0
LINE
  5
6111
102
{ACAD_REACTORS
330
610F
102
}
330
1F
100
AcDbEntity
  8
Object
 62
     0
 48
0.3
100
AcDbLine
 10
561.9185729416677
 20
820.24208677584
 30
0.0
 11
561.9185729416677
 21
822.9420867758401
 31
0.0
  0
LINE
  5
6112
102
{ACAD_REACTORS
330
610F
102
}
330
1F
100
AcDbEntity
  8
Object
 62
     0
 48
0.3
100
AcDbLine
 10
561.9185729416677
 20
822.9420867758401
 30
0.0
 11
556.5185729416677
 21
822.9420867758401
 31
0.0
  0
LINE
  5
6113
102
{ACAD_REACTORS
330
610F
102
}
330
1F
100
AcDbEntity
  8
Object
 62
     0
 48
0.3
100
AcDbLine
 10
553.8185729416677
 20
834.8220867758399
 30
0.0
 11
556.5185729416677
 21
834.8220867758399
 31
0.0
  0
LINE
  5
6114
330
1F
100
AcDbEntity
  8
Object
 62
     0
 48
0.3
100
AcDbLine
 10
572.4181132541859
 20
830.7720867758398
 30
0.0
 11
572.4181132541859
 21
829.2123630550754
 31
0.0
  0
LINE
  5
6115
330
1F
100
AcDbEntity
  8
Object
 62
     0
 48
0.3
100
AcDbLine
 10
567.0181132541858
 20
824.3086653690383
 30
0.0
 11
567.0181132541858
 21
830.7720867758398
 31
0.0
  0
LINE
  5
6116
330
1F
100
AcDbEntity
  8
Object
 62
     0
 48
0.3
100
AcDbLine
 10
564.3181132541858
 20
824.1537331999293
 30
0.0
 11
564.3181132541858
 21
830.7720867758398
 31
0.0
  0
LINE
  5
6117
330
1F
100
AcDbEntity
  8
Object
 62
     0
 48
0.3
100
AcDbLine
 10
569.7181132541859
 20
829.2123630550754
 30
0.0
 11
569.7181132541859
 21
830.7720867758398
 31
0.0
  0
LINE
  5
6118
330
1F
100
AcDbEntity
  8
Object
 62
     0
 48
0.3
100
AcDbLine
 10
567.0181132541858
 20
824.3086653690383
 30
0.0
 11
567.0181132541858
 21
830.7720867758398
 31
0.0
  0
HATCH
  5
6119
330
1F
100
AcDbEntity
  8
Object
 62
     0
 48
0.3
100
AcDbHatch
 10
0.0
 20
0.0
 30
0.0
210
0.0
220
0.0
230
1.0
  2
ANSI31
 70
     0
 71
     0
 91
        1
 92
        7
 72
     1
 73
     1
 93
       17
 10
567.0181132541858
 20
824.3086653690385
 42
0.0
 10
567.0181132541858
 20
830.77208677584
 42
-1.0
 10
569.7181132541859
 20
830.77208677584
 42
0.0
 10
569.7181132541859
 20
829.2123630550756
 42
0.0
 10
572.4181132541859
 20
829.2123630550756
 42
0.0
 10
572.4181132541859
 20
830.77208677584
 42
1.0
 10
564.3181132541858
 20
830.77208677584
 42
0.0
 10
564.3181132541858
 20
824.3086653690385
 42
0.3509045778193816
 10
567.4808271837385
 20
820.3570551365903
 42
0.4071999015487891
 10
569.7181132541859
 20
821.6727720151556
 42
0.0
 10
569.7181132541859
 20
820.24208677584
 42
0.0
 10
572.4181132541859
 20
820.24208677584
 42
0.0
 10
572.4181132541859
 20
827.58962883278
 42
0.0
 10
568.371917058751
 20
827.58962883278
 42
0.0
 10
568.3719170587507
 20
824.8896288327799
 42
0.0
 10
569.7181132541859
 20
824.8896288327799
 42
0.0
 10
569.7181132541859
 20
824.3086653690385
 42
-1.0
 97
        0
 75
     0
 76
     1
 52
0.0
 41
0.01125
 77
     0
 78
     1
 53
45.0
 43
388.6807673218097
 44
717.6334720785245
 45
-0.025256970340507
 46
0.025256970340507
 79
     0
 47
0.0407053698821989
 98
        1
 10
568.0942869891232
 20
822.1037355012922
  0
LINE
  5
611A
330
1F
100
AcDbEntity
  8
Object
 62
     0
 48
0.3
100
AcDbLine
 10
569.7181132541859
 20
829.2123630550754
 30
0.0
 11
572.4181132541859
 21
829.2123630550754
 31
0.0
  0
LINE
  5
611B
330
1F
100
AcDbEntity
  8
Object
 62
     0
 48
0.3
100
AcDbLine
 10
572.4181132541859
 20
827.5896288327798
 30
0.0
 11
568.371917058751
 21
827.5896288327798
 31
0.0
  0
LINE
  5
611C
330
1F
100
AcDbEntity
  8
Object
 62
     0
 48
0.3
100
AcDbLine
 10
569.7181132541859
 20
820.24208677584
 30
0.0
 11
572.4181132541859
 21
820.24208677584
 31
0.0
  0
LINE
  5
611D
330
1F
100
AcDbEntity
  8
Object
 62
     0
 48
0.3
100
AcDbLine
 10
572.4181132541859
 20
820.24208677584
 30
0.0
 11
569.7181132541859
 21
820.24208677584
 31
0.0
  0
LINE
  5
611E
330
1F
100
AcDbEntity
  8
Object
 62
     0
 48
0.3
100
AcDbLine
 10
568.371917058751
 20
827.5896288327798
 30
0.0
 11
568.371917058751
 21
824.8896288327799
 31
0.0
  0
LINE
  5
611F
330
1F
100
AcDbEntity
  8
Object
 62
     0
 48
0.3
100
AcDbLine
 10
568.371917058751
 20
824.8896288327799
 30
0.0
 11
569.7181132541859
 21
824.8896288327799
 31
0.0
  0
LINE
  5
6120
330
1F
100
AcDbEntity
  8
Object
 62
     0
 48
0.3
100
AcDbLine
 10
569.7181132541859
 20
824.3086653690383
 30
0.0
 11
569.7181132541859
 21
824.8896288327799
 31
0.0
  0
LINE
  5
6121
330
1F
100
AcDbEntity
  8
Object
 62
     0
 48
0.3
100
AcDbLine
 10
569.7181132541859
 20
824.8896288327799
 30
0.0
 11
569.7181132541859
 21
824.2651066341716
 31
0.0
  0
LINE
  5
6122
330
1F
100
AcDbEntity
  8
Object
 62
     0
 48
0.3
100
AcDbLine
 10
568.371917058751
 20
824.8896288327799
 30
0.0
 11
569.7181132541859
 21
824.8896288327799
 31
0.0
  0
LINE
  5
6123
330
1F
100
AcDbEntity
  8
Object
 62
     0
 48
0.3
100
AcDbLine
 10
569.7181132541859
 20
824.8896288327799
 30
0.0
 11
569.7181132541859
 21
824.3086653690383
 31
0.0
  0
ARC
  5
6124
330
1F
100
AcDbEntity
  8
Object
 62
     0
 48
0.3
100
AcDbCircle
 10
568.3681132541858
 20
824.3086653690383
 30
0.0
 40
1.35
100
AcDbArc
 50
180.0
 51
0.0
  0
ARC
  5
6125
330
1F
100
AcDbEntity
  8
Object
 62
     0
 48
0.3
100
AcDbCircle
 10
567.9256270136168
 20
822.1607376065174
 30
0.0
 40
1.857718315833298
100
AcDbArc
 50
256.1468978562146
 51
344.7714912032799
  0
LINE
  5
6126
330
1F
100
AcDbEntity
  8
Object
 62
     0
 48
0.3
100
AcDbLine
 10
569.7181132541859
 20
821.672772015151
 30
0.0
 11
569.7181132541859
 21
820.24208677584
 31
0.0
  0
LINE
  5
6127
330
1F
100
AcDbEntity
  8
Object
 62
     0
 48
0.3
100
AcDbLine
 10
572.4181132541859
 20
827.5896288327794
 30
0.0
 11
572.4181132541859
 21
820.24208677584
 31
0.0
  0
ARC
  5
6128
330
1F
100
AcDbEntity
  8
Object
 62
     0
 48
0.3
100
AcDbCircle
 10
568.3681132541858
 20
830.7720867758398
 30
0.0
 40
4.049999999999999
100
AcDbArc
 50
0.0
 51
180.0
  0
ARC
  5
6129
330
1F
100
AcDbEntity
  8
Object
 62
     0
 48
0.3
100
AcDbCircle
 10
568.3681132541858
 20
830.7720867758398
 30
0.0
 40
1.35
100
AcDbArc
 50
0.0
 51
180.0
  0
LINE
  5
612A
330
1F
100
AcDbEntity
  8
２
 62
     0
 48
25.0
100
AcDbLine
 10
-117.6069841392893
 20
817.5308658634676
 30
0.0
 11
682.3930158607106
 21
817.5308658634675
 31
0.0
  0
LINE
  5
61A6
330
1F
100
AcDbEntity
  8
２
 62
     0
 48
25.0
100
AcDbLine
 10
-117.6069841392893
 20
817.5308658634675
 30
0.0
 11
-117.6069841392893
 21
1367.530865863467
 31
0.0
  0
LINE
  5
61A7
330
1F
100
AcDbEntity
  8
２
 62
     0
 48
25.0
100
AcDbLine
 10
-117.6069841392893
 20
1367.530865863467
 30
0.0
 11
682.3930158607105
 21
1367.530865863467
 31
0.0
  0
LINE
  5
61A8
330
1F
100
AcDbEntity
  8
２
 62
     0
 48
25.0
100
AcDbLine
 10
682.3930158607105
 20
1367.530865863467
 30
0.0
 11
682.3930158607106
 21
817.5308658634675
 31
0.0
  0
MTEXT
  5
6487
330
1F
100
AcDbEntity
  8
４
 62
     0
 48
0.5
100
AcDbMText
 10
171.1613615566535
 20
820.0308658634675
 30
0.0
 40
2.5
 41
7.0048
 71
     5
 72
     5
  1
6
 73
     1
 44
1.0
  0
MTEXT
  5
805E
330
1F
100
AcDbEntity
  8
0
 48
0.5
100
AcDbMText
 10
29.16955816236122
 20
1035.5359660895
 30
0.0
 40
6.0
 41
20.438
 71
     9
 72
     1
  1

 73
     1
 44
1.0
  0
MTEXT
  5
8061
330
1F
100
AcDbEntity
  8
0
 48
0.5
100
AcDbMText
 10
18.39555542707603
 20
1011.50872061242
 30
0.0
 40
6.0
 41
20.438
 71
     9
 72
     1
  1

 73
     1
 44
1.0
  0
LINE
  5
9A4B
330
1F
100
AcDbEntity
  8
0
 62
     0
 48
0.3
100
AcDbLine
 10
216.8120328371089
 20
1012.265580212441
 30
0.0
 11
216.8120328371089
 21
1059.765580212441
 31
0.0
  0
LINE
  5
9A4C
330
1F
100
AcDbEntity
  8
0
 62
     0
 48
0.3
100
AcDbLine
 10
208.8120328371089
 20
1012.265580212441
 30
0.0
 11
208.8120328371089
 21
1059.765580212441
 31
0.0
  0
LINE
  5
9A4F
330
1F
100
AcDbEntity
  8
0
 62
     0
 48
0.3
100
AcDbLine
 10
208.8120328371089
 20
995.5155802124417
 30
0.0
 11
208.8120328371089
 21
1009.765580212441
 31
0.0
  0
LINE
  5
9A50
330
1F
100
AcDbEntity
  8
0
 62
     0
 48
0.3
100
AcDbLine
 10
216.8120328371089
 20
995.5155802124417
 30
0.0
 11
216.8120328371089
 21
1009.765580212441
 31
0.0
  0
LINE
  5
9A5A
330
1F
100
AcDbEntity
  8
0
 62
     0
 48
0.3
100
AcDbLine
 10
208.8120328371089
 20
1012.265580212441
 30
0.0
 11
216.8120328371089
 21
1012.265580212441
 31
0.0
  0
LINE
  5
9A5B
330
1F
100
AcDbEntity
  8
0
 62
     0
 48
0.3
100
AcDbLine
 10
212.8120328371089
 20
1009.765580212441
 30
0.0
 11
215.8120328371089
 21
1009.765580212441
 31
0.0
  0
LINE
  5
9A5C
330
1F
100
AcDbEntity
  8
0
 62
     0
 48
0.3
100
AcDbLine
 10
208.8120328371089
 20
1009.765580212441
 30
0.0
 11
216.8120328371089
 21
1009.765580212441
 31
0.0
  0
LINE
  5
9A5D
330
1F
100
AcDbEntity
  8
0
 62
     0
 48
0.3
100
AcDbLine
 10
215.8120328371089
 20
1009.765580212441
 30
0.0
 11
209.8120328371089
 21
1009.765580212441
 31
0.0
  0
CIRCLE
  5
9A5E
330
1F
100
AcDbEntity
  8
0
 62
     0
 48
0.3
100
AcDbCircle
 10
212.8120328371089
 20
1011.015580212441
 30
0.0
 40
1.0
  0
LINE
  5
9A5F
330
1F
100
AcDbEntity
  8
0
 62
     0
 48
0.3
100
AcDbLine
 10
215.8120328371089
 20
1009.765580212441
 30
0.0
 11
215.8120328371089
 21
1012.265580212441
 31
0.0
  0
LINE
  5
9A60
330
1F
100
AcDbEntity
  8
0
 62
     0
 48
0.3
100
AcDbLine
 10
209.8120328371089
 20
1009.765580212441
 30
0.0
 11
209.8120328371089
 21
1012.265580212441
 31
0.0
  0
LINE
  5
9A62
330
1F
100
AcDbEntity
  8
0
 62
     0
 48
0.3
100
AcDbLine
 10
209.8120328371089
 20
1059.765580212441
 30
0.0
 11
209.8120328371089
 21
1062.265580212441
 31
0.0
  0
LINE
  5
9A63
330
1F
100
AcDbEntity
  8
0
 62
     0
 48
0.3
100
AcDbLine
 10
215.8120328371089
 20
1059.765580212441
 30
0.0
 11
209.8120328371089
 21
1059.765580212441
 31
0.0
  0
LINE
  5
9A64
330
1F
100
AcDbEntity
  8
0
 62
     0
 48
0.3
100
AcDbLine
 10
215.8120328371089
 20
1059.765580212441
 30
0.0
 11
215.8120328371089
 21
1062.265580212441
 31
0.0
  0
LINE
  5
9A65
330
1F
100
AcDbEntity
  8
0
 62
     0
 48
0.3
100
AcDbLine
 10
212.8120328371089
 20
1059.765580212441
 30
0.0
 11
215.8120328371089
 21
1059.765580212441
 31
0.0
  0
LINE
  5
9A66
330
1F
100
AcDbEntity
  8
0
 62
     0
 48
0.3
100
AcDbLine
 10
216.8120328371089
 20
1062.265580212441
 30
0.0
 11
216.8120328371089
 21
1063.265580212441
 31
0.0
  0
LINE
  5
9A67
330
1F
100
AcDbEntity
  8
0
 62
     0
 48
0.3
100
AcDbLine
 10
208.8120328371089
 20
1062.265580212441
 30
0.0
 11
208.8120328371089
 21
1063.295825743388
 31
0.0
  0
ARC
  5
9A68
330
1F
100
AcDbEntity
  8
0
 62
     0
 48
0.3
100
AcDbCircle
 10
212.8120328371089
 20
1063.265580212441
 30
0.0
 40
4.0
100
AcDbArc
 50
0.0
 51
180.0
  0
LINE
  5
9A69
330
1F
100
AcDbEntity
  8
0
 62
     0
 48
0.3
100
AcDbLine
 10
216.8120328371089
 20
1062.265580212441
 30
0.0
 11
216.8120328371089
 21
1063.265580212441
 31
0.0
  0
LINE
  5
9A6A
330
1F
100
AcDbEntity
  8
0
 62
     0
 48
0.3
100
AcDbLine
 10
208.8120328371089
 20
1059.765580212441
 30
0.0
 11
216.8120328371089
 21
1059.765580212441
 31
0.0
  0
LINE
  5
9A6B
330
1F
100
AcDbEntity
  8
0
 62
     0
 48
0.3
100
AcDbLine
 10
208.8120328371089
 20
1062.265580212441
 30
0.0
 11
216.8120328371089
 21
1062.265580212441
 31
0.0
  0
CIRCLE
  5
9A6C
330
1F
100
AcDbEntity
  8
0
 62
     0
 48
0.3
100
AcDbCircle
 10
212.8120328371089
 20
1061.015580212441
 30
0.0
 40
1.0
  0
LINE
  5
9A90
330
1F
100
AcDbEntity
  8
0
 62
     0
 48
0.5
100
AcDbLine
 10
203.3120328371089
 20
993.8824532994258
 30
0.0
 11
203.3120328371089
 21
954.9296411751194
 31
0.0
  0
LINE
  5
9A94
330
1F
100
AcDbEntity
  8
0
 62
     0
 48
0.5
100
AcDbLine
 10
201.5120328371089
 20
993.8824532994258
 30
0.0
 11
201.5120328371089
 21
954.583299217935
 31
0.0
  0
ARC
  5
9AA1
330
1F
100
AcDbEntity
  8
0
 62
     0
 48
0.5
100
AcDbCircle
 10
204.3120328371089
 20
918.1914334505522
 30
0.0
 40
30.0
100
AcDbArc
 50
108.991577856377
 51
260.3547697311754
  0
LINE
  5
9AA4
330
1F
100
AcDbEntity
  8
0
 62
     0
 48
0.5
100
AcDbLine
 10
202.224712780857
 20
950.3900407982289
 30
0.0
 11
202.3158110832391
 21
950.5785519672874
 31
0.0
  0
ARC
  5
9AA5
330
1F
100
AcDbEntity
  8
0
 62
     0
 48
0.5
100
AcDbCircle
 10
204.3120328371089
 20
918.1914334505522
 30
0.0
 40
31.8
100
AcDbArc
 50
102.1553579594454
 51
260.2567987302843
  0
ARC
  5
9AA6
330
1F
100
AcDbEntity
  8
0
 62
     0
 48
0.5
100
AcDbCircle
 10
204.3120328371089
 20
918.1914334505522
 30
0.0
 40
30.0
100
AcDbArc
 50
100.8514391571573
 51
107.8158310842616
  0
ARC
  5
9AA8
330
1F
100
AcDbEntity
  8
0
 62
     0
 48
0.5
100
AcDbCircle
 10
197.7228236577921
 20
952.5655854021451
 30
0.0
 40
5.0
100
AcDbArc
 50
280.8514391571575
 51
334.2077751215898
  0
ARC
  5
9AAB
330
1F
100
AcDbEntity
  8
0
 62
     0
 48
0.5
100
AcDbCircle
 10
196.563307878825
 20
954.1663867030703
 30
0.0
 40
5.0
100
AcDbArc
 50
282.1553579594453
 51
316.2190366986657
  0
LINE
  5
9AAC
330
1F
100
AcDbEntity
  8
0
 62
     0
 48
0.5
100
AcDbLine
 10
194.54915787949
 20
946.5584261103654
 30
0.0
 11
195.1332817080414
 21
946.7527801924452
 31
0.0
  0
ARC
  5
9AAE
330
1F
100
AcDbEntity
  8
0
 62
     0
 48
0.5
100
AcDbCircle
 10
193.3120328371089
 20
954.9296411751194
 30
0.0
 40
10.0
100
AcDbArc
 50
334.2077751215924
 51
0.0
  0
ARC
  5
9AB0
330
1F
100
AcDbEntity
  8
0
 62
     0
 48
0.5
100
AcDbCircle
 10
195.3945533032922
 20
954.5266527558201
 30
0.0
 40
6.117741794840355
100
AcDbArc
 50
321.3634594227388
 51
0.5305306584816747
  0
ARC
  5
9AB2
330
1F
100
AcDbEntity
  8
0
 62
     0
 48
0.5
100
AcDbCircle
 10
215.3120328371089
 20
954.9296411751194
 30
0.0
 40
10.0
100
AcDbArc
 50
180.0
 51
205.7922248784076
  0
ARC
  5
9AB3
330
1F
100
AcDbEntity
  8
0
 62
     0
 48
0.5
100
AcDbCircle
 10
213.2295123709257
 20
954.5266527558201
 30
0.0
 40
6.117741794840355
100
AcDbArc
 50
179.4694693415183
 51
218.6365405772611
  0
ARC
  5
9AB4
330
1F
100
AcDbEntity
  8
0
 62
     0
 48
0.5
100
AcDbCircle
 10
210.9012420164258
 20
952.5655854021451
 30
0.0
 40
5.0
100
AcDbArc
 50
205.7922248784101
 51
259.1485608428424
  0
ARC
  5
9AB7
330
1F
100
AcDbEntity
  8
0
 62
     0
 48
0.5
100
AcDbCircle
 10
212.0607577953928
 20
954.1663867030703
 30
0.0
 40
5.0
100
AcDbArc
 50
223.7809633013342
 51
257.8446420405546
  0
LINE
  5
9AB9
330
1F
100
AcDbEntity
  8
0
 62
     0
 48
0.5
100
AcDbLine
 10
205.3120328371089
 20
954.9296411751194
 30
0.0
 11
205.3120328371089
 21
993.8824532994258
 31
0.0
  0
LINE
  5
9ABA
330
1F
100
AcDbEntity
  8
0
 62
     0
 48
0.5
100
AcDbLine
 10
207.1120328371089
 20
954.4700062937058
 30
0.0
 11
207.1120328371089
 21
993.8824532994258
 31
0.0
  0
ARC
  5
9ABC
330
1F
100
AcDbEntity
  8
0
 62
     0
 48
0.5
100
AcDbCircle
 10
198.0602948759326
 20
949.4589832246427
 30
0.0
 40
1.736429254628733
100
AcDbArc
 50
25.73650966652952
 51
91.7523474212345
  0
ARC
  5
9ABD
330
1F
100
AcDbEntity
  8
0
 62
     0
 48
0.5
100
AcDbCircle
 10
204.3120328371089
 20
918.1914334505522
 30
0.0
 40
33.6
100
AcDbArc
 50
100.7260982239859
 51
241.4176017595935
  0
ARC
  5
9ABE
330
1F
100
AcDbEntity
  8
0
 62
     0
 48
0.5
100
AcDbCircle
 10
210.6287003059434
 20
949.4465130384218
 30
0.0
 40
1.736429254628733
100
AcDbArc
 50
88.24765257876551
 51
154.2634903334704
  0
LINE
  5
9AC1
330
1F
100
AcDbEntity
  8
0
 62
     0
 48
0.5
100
AcDbLine
 10
206.3082545909787
 20
950.5785519672874
 30
0.0
 11
206.3993528933608
 21
950.3900407982289
 31
0.0
  0
ARC
  5
9AC4
330
1F
100
AcDbEntity
  8
0
 62
     0
 48
0.5
100
AcDbCircle
 10
204.2757924379867
 20
881.8069391432686
 30
0.0
 40
2.784730133033331
100
AcDbArc
 50
118.3300826918808
 51
66.53144618511678
  0
ARC
  5
9AC5
330
1F
100
AcDbEntity
  8
0
 62
     0
 48
0.5
100
AcDbCircle
 10
195.7528044657751
 20
900.4003594994101
 30
0.0
 40
13.9178504116532
100
AcDbArc
 50
237.3157969631134
 51
283.1978004974561
  0
ARC
  5
9AC6
330
1F
100
AcDbEntity
  8
0
 62
     0
 48
0.5
100
AcDbCircle
 10
213.0150470622353
 20
900.425388683014
 30
0.0
 40
13.9178504116532
100
AcDbArc
 50
256.8021995025438
 51
302.6842030368865
  0
ARC
  5
9AC7
330
1F
100
AcDbEntity
  8
0
 62
     0
 48
0.5
100
AcDbCircle
 10
204.3120328371089
 20
918.1914334505522
 30
0.0
 40
33.6
100
AcDbArc
 50
298.8177953671216
 51
79.1611277340957
  0
LINE
  5
9AD2
330
1F
100
AcDbEntity
  8
0
 62
     0
 48
0.5
100
AcDbLine
 10
201.5120328371089
 20
993.8824532994258
 30
0.0
 11
203.3120328371089
 21
993.8824532994258
 31
0.0
  0
LINE
  5
9AD3
330
1F
100
AcDbEntity
  8
0
 62
     0
 48
0.5
100
AcDbLine
 10
205.3120328371089
 20
993.8824532994258
 30
0.0
 11
207.1120328371089
 21
993.8824532994258
 31
0.0
  0
LINE
  5
9AD4
330
1F
100
AcDbEntity
  8
0
 62
     0
 48
0.5
100
AcDbLine
 10
207.1120328371089
 20
993.8824532994258
 30
0.0
 11
207.1120328371089
 21
981.3824532994258
 31
0.0
  0
LINE
  5
9AD7
330
1F
100
AcDbEntity
  8
0
 62
     0
 48
0.5
100
AcDbLine
 10
203.3120328371089
 20
961.3824532994257
 30
0.0
 11
203.3120328371089
 21
948.5155802124419
 31
0.0
  0
LINE
  5
9AD8
330
1F
100
AcDbEntity
  8
0
 62
     0
 48
0.5
100
AcDbLine
 10
203.3120328371089
 20
948.5155802124419
 30
0.0
 11
205.3120328371089
 21
948.5155802124419
 31
0.0
  0
LINE
  5
9AD9
330
1F
100
AcDbEntity
  8
0
 62
     0
 48
0.5
100
AcDbLine
 10
205.3120328371089
 20
948.5155802124419
 30
0.0
 11
205.3120328371089
 21
993.8824532994258
 31
0.0
  0
LINE
  5
9ADA
330
1F
100
AcDbEntity
  8
0
 62
     0
 48
0.5
100
AcDbLine
 10
205.3120328371089
 20
993.8824532994258
 30
0.0
 11
220.3120328371089
 21
993.8824532994258
 31
0.0
  0
LINE
  5
9ADB
330
1F
100
AcDbEntity
  8
0
 62
     0
 48
0.5
100
AcDbLine
 10
203.3120328371089
 20
948.5155802124419
 30
0.0
 11
203.3120328371089
 21
995.5155802124417
 31
0.0
  0
LINE
  5
9ADC
330
1F
100
AcDbEntity
  8
0
 62
     0
 48
0.5
100
AcDbLine
 10
203.3120328371089
 20
995.5155802124417
 30
0.0
 11
220.3120328371089
 21
995.5155802124417
 31
0.0
  0
LINE
  5
9ADD
330
1F
100
AcDbEntity
  8
0
 62
     0
 48
0.5
100
AcDbLine
 10
220.3120328371089
 20
995.5155802124417
 30
0.0
 11
220.3120328371089
 21
993.8824532994258
 31
0.0
  0
LINE
  5
9B06
330
1F
100
AcDbEntity
  8
0
 62
     0
 48
0.3
100
AcDbLine
 10
192.1120328371089
 20
958.8824532994618
 30
0.0
 11
196.5359744259341
 21
958.8824532994618
 31
0.0
  0
LINE
  5
9B07
330
1F
100
AcDbEntity
  8
0
 62
     0
 48
0.3
100
AcDbLine
 10
192.1120328371089
 20
963.8824532994616
 30
0.0
 11
196.5200849459517
 21
963.8824532994616
 31
0.0
  0
LINE
  5
9B08
330
1F
100
AcDbEntity
  8
0
 62
     0
 48
0.3
100
AcDbLine
 10
196.5375633739323
 20
958.3824532994617
 30
0.0
 11
192.6120328371089
 21
958.3824532994617
 31
0.0
  0
LINE
  5
9B09
330
1F
100
AcDbEntity
  8
0
 62
     0
 48
0.3
100
AcDbLine
 10
192.6120328371089
 20
964.3824532994617
 30
0.0
 11
196.5184959979535
 21
964.3824532994617
 31
0.0
  0
LINE
  5
9B0A
330
1F
100
AcDbEntity
  8
0
 62
     0
 48
0.3
100
AcDbLine
 10
192.6120328371089
 20
958.3824532994617
 30
0.0
 11
192.1120328371089
 21
958.8824532994618
 31
0.0
  0
LINE
  5
9B0B
330
1F
100
AcDbEntity
  8
0
 62
     0
 48
0.3
100
AcDbLine
 10
192.6120328371089
 20
964.3824532994617
 30
0.0
 11
192.6120328371089
 21
958.3824532994617
 31
0.0
  0
LINE
  5
9B0C
330
1F
100
AcDbEntity
  8
0
 62
     0
 48
0.3
100
AcDbLine
 10
192.6120328371089
 20
964.3824532994617
 30
0.0
 11
192.1120328371089
 21
963.8824532994616
 31
0.0
  0
LINE
  5
9B0D
330
1F
100
AcDbEntity
  8
0
 62
     0
 48
0.3
100
AcDbLine
 10
192.1120328371089
 20
958.8824532994618
 30
0.0
 11
192.1120328371089
 21
963.8824532994616
 31
0.0
  0
LINE
  5
9B14
330
1F
100
AcDbEntity
  8
0
 62
     0
 48
0.3
100
AcDbLine
 10
207.1120328371089
 20
961.3824532994618
 30
0.0
 11
207.1120328371089
 21
958.3824532994617
 31
0.0
  0
ARC
  5
9B1B
330
1F
100
AcDbEntity
  8
0
 62
     0
 48
0.3
100
AcDbCircle
 10
198.9015636879472
 20
977.2037030158465
 30
0.0
 40
2.360242450166392
100
AcDbArc
 50
142.8609433692578
 51
217.1390566307447
  0
LINE
  5
9B1D
330
1F
100
AcDbEntity
  8
0
 62
     0
 48
0.3
100
AcDbLine
 10
201.5252667817124
 20
975.7756709784587
 30
0.0
 11
201.0200431795372
 21
975.7787030158466
 31
0.0
  0
LINE
  5
9B1E
330
1F
100
AcDbEntity
  8
0
 62
     0
 48
0.3
100
AcDbLine
 10
197.0200431795372
 20
975.7787030158466
 30
0.0
 11
201.0200431795372
 21
975.7787030158466
 31
0.0
  0
ARC
  5
9B1F
330
1F
100
AcDbEntity
  8
0
 62
     0
 48
0.3
100
AcDbCircle
 10
198.7768567970764
 20
985.5537030158464
 30
0.0
 40
2.262082908907492
100
AcDbArc
 50
140.9535378530498
 51
219.0464621469501
  0
LINE
  5
9B20
330
1F
100
AcDbEntity
  8
0
 62
     0
 48
0.3
100
AcDbLine
 10
196.5147738881689
 20
985.5537030158464
 30
0.0
 11
196.5413331557617
 21
977.1962024486875
 31
0.0
  0
ARC
  5
9B22
330
1F
100
AcDbEntity
  8
0
 62
     0
 48
0.3
100
AcDbCircle
 10
204.3905773406501
 20
981.3787030158463
 30
0.0
 40
7.866846497811707
100
AcDbArc
 50
159.5390885234377
 51
200.4609114765653
  0
LINE
  5
9B23
330
1F
100
AcDbEntity
  8
0
 62
     0
 48
0.3
100
AcDbLine
 10
201.0200431795372
 20
984.1287030158465
 30
0.0
 11
201.5033006607013
 21
984.1302387578611
 31
0.0
  0
LINE
  5
9B24
330
1F
100
AcDbEntity
  8
0
 62
     0
 48
0.3
100
AcDbLine
 10
201.0200431795372
 20
978.6287030158463
 30
0.0
 11
201.5207789121686
 21
978.6302943019263
 31
0.0
  0
LINE
  5
9B25
330
1F
100
AcDbEntity
  8
0
 62
     0
 48
0.3
100
AcDbLine
 10
197.0200431795372
 20
984.1287030158465
 30
0.0
 11
201.0200431795372
 21
984.1287030158465
 31
0.0
  0
LINE
  5
9B26
330
1F
100
AcDbEntity
  8
0
 62
     0
 48
0.3
100
AcDbLine
 10
197.0200431795372
 20
978.6287030158463
 30
0.0
 11
201.0200431795372
 21
978.6287030158463
 31
0.0
  0
LINE
  5
9B28
330
1F
100
AcDbEntity
  8
0
 62
     0
 48
0.3
100
AcDbLine
 10
201.4987651212934
 20
986.9807886572889
 30
0.0
 11
201.0200431795372
 21
986.9787030158462
 31
0.0
  0
LINE
  5
9B29
330
1F
100
AcDbEntity
  8
0
 62
     0
 48
0.3
100
AcDbLine
 10
201.0200431795372
 20
986.9787030158462
 30
0.0
 11
197.0200431795372
 21
986.9787030158462
 31
0.0
  0
LINE
  5
9B2A
330
1F
100
AcDbEntity
  8
0
 62
     0
 48
0.5
100
AcDbLine
 10
207.1120328371089
 20
963.8824532994616
 30
0.0
 11
207.1120328371089
 21
958.8824532994618
 31
0.0
  0
ARC
  5
9B2B
330
1F
100
AcDbEntity
  8
0
 62
     0
 48
0.3
100
AcDbCircle
 10
204.2334883335677
 20
961.3862035830411
 30
0.0
 40
7.866846497811707
100
AcDbArc
 50
339.5390885234377
 51
20.46091147656529
  0
LINE
  5
9B2D
330
1F
100
AcDbEntity
  8
0
 62
     0
 48
0.3
100
AcDbLine
 10
212.1092917860487
 20
957.2112035830413
 30
0.0
 11
212.0827325184559
 21
965.5687041502002
 31
0.0
  0
LINE
  5
9B2E
330
1F
100
AcDbEntity
  8
0
 62
     0
 48
0.3
100
AcDbLine
 10
211.6040224946805
 20
964.1362035830411
 30
0.0
 11
207.6040224946805
 21
964.1362035830411
 31
0.0
  0
LINE
  5
9B2F
330
1F
100
AcDbEntity
  8
0
 62
     0
 48
0.3
100
AcDbLine
 10
207.6040224946805
 20
964.1362035830411
 30
0.0
 11
207.103286762049
 21
964.1346122969611
 31
0.0
  0
LINE
  5
9B30
330
1F
100
AcDbEntity
  8
0
 62
     0
 48
0.3
100
AcDbLine
 10
211.6040224946805
 20
966.986203583041
 30
0.0
 11
207.6040224946805
 21
966.986203583041
 31
0.0
  0
LINE
  5
9B31
330
1F
100
AcDbEntity
  8
0
 62
     0
 48
0.3
100
AcDbLine
 10
207.0987988925053
 20
966.9892356204286
 30
0.0
 11
207.6040224946805
 21
966.986203583041
 31
0.0
  0
ARC
  5
9B33
330
1F
100
AcDbEntity
  8
0
 62
     0
 48
0.3
100
AcDbCircle
 10
209.7225019862705
 20
965.5612035830412
 30
0.0
 40
2.360242450166392
100
AcDbArc
 50
322.8609433692578
 51
37.13905663074475
  0
LINE
  5
9B34
330
1F
100
AcDbEntity
  8
0
 62
     0
 48
0.3
100
AcDbLine
 10
207.6040224946805
 20
955.7862035830412
 30
0.0
 11
211.6040224946805
 21
955.7862035830412
 31
0.0
  0
LINE
  5
9B35
330
1F
100
AcDbEntity
  8
0
 62
     0
 48
0.3
100
AcDbLine
 10
207.1253005529242
 20
955.7841179415985
 30
0.0
 11
207.6040224946805
 21
955.7862035830412
 31
0.0
  0
LINE
  5
9B37
330
1F
100
AcDbEntity
  8
0
 62
     0
 48
0.3
100
AcDbLine
 10
211.6040224946805
 20
958.6362035830411
 30
0.0
 11
207.6040224946805
 21
958.6362035830411
 31
0.0
  0
LINE
  5
9B38
330
1F
100
AcDbEntity
  8
0
 62
     0
 48
0.3
100
AcDbLine
 10
207.6040224946805
 20
958.6362035830411
 30
0.0
 11
207.1207650135163
 21
958.6346678410263
 31
0.0
  0
ARC
  5
9B39
330
1F
100
AcDbEntity
  8
0
 62
     0
 48
0.3
100
AcDbCircle
 10
209.8472088771413
 20
957.2112035830413
 30
0.0
 40
2.262082908907492
100
AcDbArc
 50
320.9535378530498
 51
39.04646214695013
  0
LINE
  5
9B3A
330
1F
100
AcDbEntity
  8
0
 62
     0
 48
0.3
100
AcDbLine
 10
192.1120328371089
 20
978.8824532994617
 30
0.0
 11
196.5359744259341
 21
978.882453299462
 31
0.0
  0
LINE
  5
9B3B
330
1F
100
AcDbEntity
  8
0
 62
     0
 48
0.3
100
AcDbLine
 10
196.5375633739323
 20
978.3824532994618
 30
0.0
 11
192.6120328371089
 21
978.3824532994618
 31
0.0
  0
LINE
  5
9B3C
330
1F
100
AcDbEntity
  8
0
 62
     0
 48
0.3
100
AcDbLine
 10
192.1120328371089
 20
983.8824532994618
 30
0.0
 11
196.5200849459517
 21
983.8824532994618
 31
0.0
  0
LINE
  5
9B3D
330
1F
100
AcDbEntity
  8
0
 62
     0
 48
0.3
100
AcDbLine
 10
192.6120328371089
 20
984.3824532994617
 30
0.0
 11
196.5184959979535
 21
984.3824532994617
 31
0.0
  0
LINE
  5
9B3E
330
1F
100
AcDbEntity
  8
0
 62
     0
 48
0.3
100
AcDbLine
 10
192.6120328371089
 20
978.3824532994618
 30
0.0
 11
192.1120328371089
 21
978.8824532994617
 31
0.0
  0
LINE
  5
9B3F
330
1F
100
AcDbEntity
  8
0
 62
     0
 48
0.3
100
AcDbLine
 10
192.6120328371089
 20
984.3824532994617
 30
0.0
 11
192.1120328371089
 21
983.8824532994618
 31
0.0
  0
LINE
  5
9B40
330
1F
100
AcDbEntity
  8
0
 62
     0
 48
0.3
100
AcDbLine
 10
192.6120328371089
 20
984.3824532994617
 30
0.0
 11
192.6120328371089
 21
978.3824532994618
 31
0.0
  0
LINE
  5
9B41
330
1F
100
AcDbEntity
  8
0
 62
     0
 48
0.3
100
AcDbLine
 10
192.1120328371089
 20
978.8824532994617
 30
0.0
 11
192.1120328371089
 21
983.8824532994618
 31
0.0
  0
LINE
  5
9B42
330
1F
100
AcDbEntity
  8
0
 62
     0
 48
0.3
100
AcDbLine
 10
207.6040224946805
 20
975.7862035830411
 30
0.0
 11
211.6040224946805
 21
975.7862035830411
 31
0.0
  0
LINE
  5
9B45
330
1F
100
AcDbEntity
  8
0
 62
     0
 48
0.3
100
AcDbLine
 10
211.6040224946805
 20
978.6362035830411
 30
0.0
 11
207.6040224946805
 21
978.6362035830411
 31
0.0
  0
ARC
  5
9B47
330
1F
100
AcDbEntity
  8
0
 62
     0
 48
0.3
100
AcDbCircle
 10
209.8472088771413
 20
977.2112035830412
 30
0.0
 40
2.262082908907492
100
AcDbArc
 50
320.9535378530498
 51
39.04646214695013
  0
LINE
  5
9B48
330
1F
100
AcDbEntity
  8
0
 62
     0
 48
0.3
100
AcDbLine
 10
211.6040224946805
 20
984.1362035830412
 30
0.0
 11
207.6040224946805
 21
984.1362035830412
 31
0.0
  0
LINE
  5
9B4A
330
1F
100
AcDbEntity
  8
0
 62
     0
 48
0.3
100
AcDbLine
 10
211.6040224946805
 20
986.986203583041
 30
0.0
 11
207.6040224946805
 21
986.986203583041
 31
0.0
  0
ARC
  5
9B4D
330
1F
100
AcDbEntity
  8
0
 62
     0
 48
0.3
100
AcDbCircle
 10
209.7225019862705
 20
985.5612035830411
 30
0.0
 40
2.360242450166392
100
AcDbArc
 50
322.8609433692578
 51
37.13905663074475
  0
ARC
  5
9B50
330
1F
100
AcDbEntity
  8
0
 62
     0
 48
0.3
100
AcDbCircle
 10
204.2334883335677
 20
981.386203583041
 30
0.0
 40
7.866846497811707
100
AcDbArc
 50
339.5390885234377
 51
20.46091147656529
  0
LINE
  5
9B52
330
1F
100
AcDbEntity
  8
0
 62
     0
 48
0.3
100
AcDbLine
 10
212.1092917860487
 20
977.2112035830412
 30
0.0
 11
212.0827325184559
 21
985.5687041502001
 31
0.0
  0
ARC
  5
9B53
330
1F
100
AcDbEntity
  8
0
 62
     0
 48
0.3
100
AcDbCircle
 10
198.9015636879472
 20
957.2037030158465
 30
0.0
 40
2.360242450166392
100
AcDbArc
 50
142.8609433692578
 51
217.1390566307447
  0
LINE
  5
9B55
330
1F
100
AcDbEntity
  8
0
 62
     0
 48
0.3
100
AcDbLine
 10
201.5252667817124
 20
955.7756709784587
 30
0.0
 11
201.0200431795372
 21
955.7787030158465
 31
0.0
  0
LINE
  5
9B56
330
1F
100
AcDbEntity
  8
0
 62
     0
 48
0.3
100
AcDbLine
 10
197.0200431795372
 20
955.7787030158465
 30
0.0
 11
201.0200431795372
 21
955.7787030158465
 31
0.0
  0
ARC
  5
9B57
330
1F
100
AcDbEntity
  8
0
 62
     0
 48
0.3
100
AcDbCircle
 10
198.7768567970764
 20
965.5537030158464
 30
0.0
 40
2.262082908907492
100
AcDbArc
 50
140.9535378530498
 51
219.0464621469501
  0
LINE
  5
9B59
330
1F
100
AcDbEntity
  8
0
 62
     0
 48
0.3
100
AcDbLine
 10
197.0200431795372
 20
964.1287030158464
 30
0.0
 11
201.0200431795372
 21
964.1287030158464
 31
0.0
  0
LINE
  5
9B5C
330
1F
100
AcDbEntity
  8
0
 62
     0
 48
0.3
100
AcDbLine
 10
201.0200431795372
 20
966.9787030158463
 30
0.0
 11
197.0200431795372
 21
966.9787030158463
 31
0.0
  0
LINE
  5
9B5D
330
1F
100
AcDbEntity
  8
0
 62
     0
 48
0.3
100
AcDbLine
 10
201.0200431795372
 20
958.6287030158464
 30
0.0
 11
201.5207789121686
 21
958.6302943019264
 31
0.0
  0
LINE
  5
9B5E
330
1F
100
AcDbEntity
  8
0
 62
     0
 48
0.3
100
AcDbLine
 10
197.0200431795372
 20
958.6287030158464
 30
0.0
 11
201.0200431795372
 21
958.6287030158464
 31
0.0
  0
LINE
  5
9B5F
330
1F
100
AcDbEntity
  8
0
 62
     0
 48
0.3
100
AcDbLine
 10
196.5147738881689
 20
965.5537030158464
 30
0.0
 11
196.5413331557617
 21
957.1962024486875
 31
0.0
  0
ARC
  5
9B61
330
1F
100
AcDbEntity
  8
0
 62
     0
 48
0.3
100
AcDbCircle
 10
204.3905773406501
 20
961.3787030158464
 30
0.0
 40
7.866846497811707
100
AcDbArc
 50
159.5390885234377
 51
200.4609114765653
  0
LINE
  5
9B62
330
1F
100
AcDbEntity
  8
0
 62
     0
 48
0.5
100
AcDbLine
 10
205.3120328371089
 20
993.8824532994258
 30
0.0
 11
220.3120328371089
 21
993.8824532994258
 31
0.0
  0
ARC
  5
9B65
330
1F
100
AcDbEntity
  8
0
 62
     0
 48
0.5
100
AcDbCircle
 10
191.6123838431991
 20
858.1900920545585
 30
0.0
 40
31.37809254922629
100
AcDbArc
 50
61.41505354078534
 51
75.84527663132151
  0
LINE
  5
9B67
330
1F
100
AcDbEntity
  8
0
 62
     0
 48
0.5
100
AcDbLine
 10
207.1459737727912
 20
886.5179622360948
 30
0.0
 11
206.9855620217149
 21
888.3108002293658
 31
0.0
  0
ARC
  5
9B6C
330
1F
100
AcDbEntity
  8
0
 62
     0
 48
0.5
100
AcDbCircle
 10
204.2757924379867
 20
881.8069391432686
 30
0.0
 40
4.584514957707383
100
AcDbArc
 50
123.6543766937503
 51
64.43316335244523
  0
LINE
  5
9B6D
330
1F
100
AcDbEntity
  8
0
 62
     0
 48
0.5
100
AcDbLine
 10
201.7351377518849
 20
885.6230695345724
 30
0.0
 11
203.6016733591055
 21
884.8302281136156
 31
0.0
  0
ARC
  5
9B6E
330
1F
100
AcDbEntity
  8
0
 62
     0
 48
0.5
100
AcDbCircle
 10
194.8550538833708
 20
866.4912656854765
 30
0.0
 40
20.76274004194809
100
AcDbArc
 50
59.49891259538002
 51
78.68028709284167
  0
ARC
  5
9B70
330
1F
100
AcDbEntity
  8
0
 62
     0
 48
0.5
100
AcDbCircle
 10
212.2502377148669
 20
871.5542118037957
 30
0.0
 40
17.56417049223607
100
AcDbArc
 50
107.441966353535
 51
118.1724046817952
  0
ARC
  5
9B71
330
1F
100
AcDbEntity
  8
0
 62
     0
 48
0.5
100
AcDbCircle
 10
208.9894959809766
 20
878.0810572279108
 30
0.0
 40
8.63596782353842
100
AcDbArc
 50
102.3257956840893
 51
111.1117692866276
  0
ARC
  5
9B72
330
1F
100
AcDbEntity
  8
0
 62
     0
 48
0.5
100
AcDbCircle
 10
204.3120328371089
 20
918.1914334505522
 30
0.0
 40
30.0
100
AcDbArc
 50
275.1128426758627
 51
79.14856084284274
  0
ARC
  5
9B75
330
1F
100
AcDbEntity
  8
0
 62
     0
 48
0.5
100
AcDbCircle
 10
204.3120328371089
 20
918.1914334505522
 30
0.0
 40
31.8
100
AcDbArc
 50
275.1128475804188
 51
77.84464204055469
  0
ARC
  5
9B76
330
1F
100
AcDbEntity
  8
0
 62
     0
 48
0.5
100
AcDbCircle
 10
212.2502377148669
 20
871.5542118037957
 30
0.0
 40
17.56417049223607
100
AcDbArc
 50
126.7745316920553
 51
126.774531692147
  0
ARC
  5
9B77
330
1F
100
AcDbEntity
  8
0
 62
     0
 48
0.5
100
AcDbCircle
 10
208.9894959809766
 20
878.0810572279108
 30
0.0
 40
8.63596782353842
100
AcDbArc
 50
128.6001570428845
 51
134.3343696986304
  0
CIRCLE
  5
9B79
330
1F
100
AcDbEntity
  8
0
 62
     0
 48
0.5
100
AcDbCircle
 10
204.2757924379867
 20
881.8069391432686
 30
0.0
 40
2.702174104323133
  0
LINE
  5
9B7E
330
1F
100
AcDbEntity
  8
0
 62
     0
 48
0.5
100
AcDbLine
 10
310.8744401295428
 20
995.5155802124417
 30
0.0
 11
310.8744401295428
 21
877.2338374728702
 31
0.0
  0
LINE
  5
9B7F
330
1F
100
AcDbEntity
  8
0
 62
     0
 48
0.5
100
AcDbLine
 10
310.8744401295428
 20
877.2338374728702
 30
0.0
 11
330.8744401295427
 21
877.2338374728702
 31
0.0
  0
LINE
  5
9B80
330
1F
100
AcDbEntity
  8
0
 62
     0
 48
0.5
100
AcDbLine
 10
330.8744401295427
 20
877.2338374728702
 30
0.0
 11
335.8744401295428
 21
877.2338374728702
 31
0.0
  0
LINE
  5
9B81
330
1F
100
AcDbEntity
  8
0
 62
     0
 48
0.5
100
AcDbLine
 10
335.8744401295428
 20
877.2338374728702
 30
0.0
 11
335.8744401295428
 21
995.5155802124417
 31
0.0
  0
LINE
  5
9B82
330
1F
100
AcDbEntity
  8
0
 62
     0
 48
0.5
100
AcDbLine
 10
310.8744401295428
 20
995.5155802124417
 30
0.0
 11
335.8744401295428
 21
995.5155802124417
 31
0.0
  0
LINE
  5
9B84
330
1F
100
AcDbEntity
  8
0
 62
     0
 48
0.5
100
AcDbLine
 10
310.8744401295428
 20
993.8824532994258
 30
0.0
 11
335.8744401295428
 21
993.8824532994258
 31
0.0
  0
ARC
  5
9B85
330
1F
100
AcDbEntity
  8
0
 62
     0
 48
0.5
100
AcDbCircle
 10
323.3744401295428
 20
935.0318740966249
 30
0.0
 40
58.85057920280091
100
AcDbArc
 50
77.7368279602956
 51
86.79294736466294
  0
LINE
  5
9B87
330
1F
100
AcDbEntity
  8
0
 62
     0
 48
0.5
100
AcDbLine
 10
310.8744401295428
 20
993.8824532994258
 30
0.0
 11
335.8744401295428
 21
993.8824532994258
 31
0.0
  0
LINE
  5
9B88
330
1F
100
AcDbEntity
  8
0
 62
     0
 48
0.5
100
AcDbLine
 10
310.8744401295428
 20
995.5155802124417
 30
0.0
 11
335.8744401295428
 21
995.5155802124417
 31
0.0
  0
LINE
  5
9B99
330
1F
100
AcDbEntity
  8
0
 62
     0
100
AcDbLine
 10
323.3723667087044
 20
974.679328850714
 30
0.0
 11
328.9747490465861
 21
977.9162599817516
 31
0.0
  0
LINE
  5
9B9A
330
1F
100
AcDbEntity
  8
0
 62
     0
100
AcDbLine
 10
328.9768224674244
 20
984.3865309735893
 30
0.0
 11
323.3765135503812
 21
987.619870834389
 31
0.0
  0
LINE
  5
9B9B
330
1F
100
AcDbEntity
  8
0
 62
     0
100
AcDbLine
 10
328.9768224674244
 20
984.3865309735893
 30
0.0
 11
323.3765135503812
 21
987.619870834389
 31
0.0
  0
CIRCLE
  5
9B9C
330
1F
100
AcDbEntity
  8
0
 62
     0
100
AcDbCircle
 10
323.3744401295428
 20
981.1495998425517
 30
0.0
 40
5.601345915277712
  0
LINE
  5
9B9D
330
1F
100
AcDbEntity
  8
0
 62
     0
100
AcDbLine
 10
317.7741312124994
 20
984.3829397033516
 30
0.0
 11
317.7720577916611
 21
977.9126687115139
 31
0.0
  0
LINE
  5
9B9E
330
1F
100
AcDbEntity
  8
0
 62
     0
100
AcDbLine
 10
317.7720577916611
 20
977.9126687115139
 30
0.0
 11
323.3723667087044
 21
974.679328850714
 31
0.0
  0
LINE
  5
9B9F
330
1F
100
AcDbEntity
  8
0
 62
     0
100
AcDbLine
 10
317.7720577916611
 20
977.9126687115139
 30
0.0
 11
323.3723667087044
 21
974.679328850714
 31
0.0
  0
LINE
  5
9BA0
330
1F
100
AcDbEntity
  8
0
 62
     0
100
AcDbLine
 10
323.3765135503812
 20
987.619870834389
 30
0.0
 11
317.7741312124994
 21
984.3829397033516
 31
0.0
  0
LINE
  5
9BA1
330
1F
100
AcDbEntity
  8
0
 62
     0
100
AcDbLine
 10
328.9747490465861
 20
977.9162599817516
 30
0.0
 11
328.9768224674244
 21
984.3865309735893
 31
0.0
  0
CIRCLE
  5
9BA3
330
1F
100
AcDbEntity
  8
0
 62
     0
100
AcDbCircle
 10
323.3744401295428
 20
961.1495998425516
 30
0.0
 40
5.601345915277712
  0
LINE
  5
9BA4
330
1F
100
AcDbEntity
  8
0
 62
     0
100
AcDbLine
 10
323.3723667087044
 20
954.679328850714
 30
0.0
 11
328.9747490465861
 21
957.9162599817516
 31
0.0
  0
LINE
  5
9BA5
330
1F
100
AcDbEntity
  8
0
 62
     0
100
AcDbLine
 10
328.9768224674244
 20
964.3865309735893
 30
0.0
 11
323.3765135503812
 21
967.6198708343891
 31
0.0
  0
LINE
  5
9BA6
330
1F
100
AcDbEntity
  8
0
 62
     0
100
AcDbLine
 10
328.9768224674244
 20
964.3865309735893
 30
0.0
 11
323.3765135503812
 21
967.6198708343891
 31
0.0
  0
LINE
  5
9BA7
330
1F
100
AcDbEntity
  8
0
 62
     0
100
AcDbLine
 10
317.7720577916611
 20
957.912668711514
 30
0.0
 11
323.3723667087044
 21
954.679328850714
 31
0.0
  0
LINE
  5
9BA8
330
1F
100
AcDbEntity
  8
0
 62
     0
100
AcDbLine
 10
317.7720577916611
 20
957.912668711514
 30
0.0
 11
323.3723667087044
 21
954.679328850714
 31
0.0
  0
LINE
  5
9BA9
330
1F
100
AcDbEntity
  8
0
 62
     0
100
AcDbLine
 10
323.3765135503812
 20
967.6198708343891
 30
0.0
 11
317.7741312124994
 21
964.3829397033517
 31
0.0
  0
LINE
  5
9BAA
330
1F
100
AcDbEntity
  8
0
 62
     0
100
AcDbLine
 10
317.7741312124994
 20
964.3829397033517
 30
0.0
 11
317.7720577916611
 21
957.912668711514
 31
0.0
  0
LINE
  5
9BAB
330
1F
100
AcDbEntity
  8
0
 62
     0
100
AcDbLine
 10
328.9747490465861
 20
957.9162599817516
 30
0.0
 11
328.9768224674244
 21
964.3865309735893
 31
0.0
  0
LINE
  5
9BAD
330
1F
100
AcDbEntity
  8
0
 62
     0
 48
0.5
100
AcDbLine
 10
310.8744401295428
 20
950.3451222613476
 30
0.0
 11
319.3744401295428
 21
950.3451222613476
 31
0.0
  0
LINE
  5
9BB1
330
1F
100
AcDbEntity
  8
0
 62
     0
 48
0.5
100
AcDbLine
 10
327.4167501230702
 20
950.3451222613476
 30
0.0
 11
327.4167501230702
 21
888.2062563751016
 31
0.0
  0
ARC
  5
9BBA
330
1F
100
AcDbEntity
  8
0
 62
     0
 48
0.5
100
AcDbCircle
 10
323.3955951263065
 20
893.2182863771087
 30
0.0
 40
6.42573982114267
100
AcDbArc
 50
231.2599048803176
 51
308.7400951196823
  0
ARC
  5
9BBE
330
1F
100
AcDbEntity
  8
0
 62
     0
 48
0.5
100
AcDbCircle
 10
323.3955951263065
 20
945.3330922593405
 30
0.0
 40
6.42573982114267
100
AcDbArc
 50
51.25990488031764
 51
128.7400951196823
  0
LINE
  5
9BBF
330
1F
100
AcDbEntity
  8
0
 62
     0
 48
0.5
100
AcDbLine
 10
327.4167501230702
 20
950.3451222613476
 30
0.0
 11
335.8744401295428
 21
950.3451222613476
 31
0.0
  0
LINE
  5
9BC1
330
1F
100
AcDbEntity
  8
0
 62
     0
 48
0.5
100
AcDbLine
 10
319.3744401295428
 20
950.3451222613476
 30
0.0
 11
319.3744401295428
 21
888.2062563751016
 31
0.0
  0
LINE
  5
9BC2
330
1F
100
AcDbEntity
  8
0
 62
     0
 48
0.5
100
AcDbLine
 10
310.8744401295428
 20
877.2338374728702
 30
0.0
 11
310.8744401295428
 21
882.2338374728701
 31
0.0
  0
LINE
  5
9BC3
330
1F
100
AcDbEntity
  8
0
 62
     0
 48
0.5
100
AcDbLine
 10
310.8744401295428
 20
882.2338374728701
 30
0.0
 11
310.8744401295428
 21
883.2338374728701
 31
0.0
  0
LINE
  5
9BC5
330
1F
100
AcDbEntity
  8
0
 62
     0
 48
0.5
100
AcDbLine
 10
310.8744401295428
 20
884.5091132475918
 30
0.0
 11
335.8744401295428
 21
884.5091132475918
 31
0.0
  0
ARC
  5
9BC9
330
1F
100
AcDbEntity
  8
0
 62
     0
 48
0.5
100
AcDbCircle
 10
335.8744401295428
 20
880.8714753602309
 30
0.0
 40
3.637637887360824
100
AcDbArc
 50
270.0
 51
90.0
  0
ARC
  5
9BCA
330
1F
100
AcDbEntity
  8
0
 62
     0
 48
0.5
100
AcDbCircle
 10
313.0326451431167
 20
880.8714753602309
 30
0.0
 40
3.637637887360824
100
AcDbArc
 50
126.3914291071476
 51
233.6085708928523
  0
LINE
  5
9BCF
330
1F
100
AcDbEntity
  8
0
 62
     0
 48
0.5
100
AcDbLine
 10
319.3744401295428
 20
884.5091132475918
 30
0.0
 11
319.3744401295428
 21
877.2338374728702
 31
0.0
  0
LINE
  5
9BD0
330
1F
100
AcDbEntity
  8
0
 62
     0
 48
0.5
100
AcDbLine
 10
327.4167501230702
 20
884.5091132475918
 30
0.0
 11
327.4167501230702
 21
877.2338374728702
 31
0.0
  0
LINE
  5
9BD1
330
1F
100
AcDbEntity
  8
0
 62
     0
 48
0.5
100
AcDbLine
 10
310.8744401295428
 20
995.5155802124417
 30
0.0
 11
335.8744401295428
 21
995.5155802124417
 31
0.0
  0
LINE
  5
9BD2
330
1F
100
AcDbEntity
  8
0
 62
     0
 48
0.5
100
AcDbLine
 10
208.8120328371089
 20
995.5155802124417
 30
0.0
 11
216.8120328371089
 21
995.5155802124417
 31
0.0
  0
LINE
  5
9BD3
330
1F
100
AcDbEntity
  8
0
 62
     0
 48
0.5
100
AcDbLine
 10
319.3744401295428
 20
995.5155802124417
 30
0.0
 11
327.3744401295427
 21
995.5155802124417
 31
0.0
  0
LINE
  5
9BD4
330
1F
100
AcDbEntity
  8
0
 62
     0
 48
0.3
100
AcDbLine
 10
319.3744401295428
 20
1012.265580212441
 30
0.0
 11
327.3744401295427
 21
1012.265580212441
 31
0.0
  0
LINE
  5
9BD5
330
1F
100
AcDbEntity
  8
0
 62
     0
 48
0.3
100
AcDbLine
 10
319.3744401295428
 20
1009.765580212441
 30
0.0
 11
327.3744401295427
 21
1009.765580212441
 31
0.0
  0
LINE
  5
9BD6
330
1F
100
AcDbEntity
  8
0
 62
     0
 48
0.3
100
AcDbLine
 10
319.3744401295428
 20
1059.765580212441
 30
0.0
 11
327.3744401295427
 21
1059.765580212441
 31
0.0
  0
LINE
  5
9BD7
330
1F
100
AcDbEntity
  8
0
 62
     0
 48
0.3
100
AcDbLine
 10
319.3744401295428
 20
1062.265580212441
 30
0.0
 11
327.3744401295427
 21
1062.265580212441
 31
0.0
  0
ARC
  5
9BD8
330
1F
100
AcDbEntity
  8
0
 62
     0
 48
0.3
100
AcDbCircle
 10
323.3744401295428
 20
1063.265580212441
 30
0.0
 40
4.0
100
AcDbArc
 50
0.0
 51
180.0
  0
LINE
  5
9BD9
330
1F
100
AcDbEntity
  8
0
 62
     0
 48
0.3
100
AcDbLine
 10
319.3744401295428
 20
1012.265580212441
 30
0.0
 11
319.3744401295428
 21
1059.765580212441
 31
0.0
  0
LINE
  5
9BDA
330
1F
100
AcDbEntity
  8
0
 62
     0
 48
0.3
100
AcDbLine
 10
319.3744401295428
 20
995.5155802124417
 30
0.0
 11
319.3744401295428
 21
1009.765580212441
 31
0.0
  0
LINE
  5
9BDB
330
1F
100
AcDbEntity
  8
0
 62
     0
 48
0.3
100
AcDbLine
 10
319.3744401295428
 20
1062.265580212441
 30
0.0
 11
319.3744401295428
 21
1063.295825743388
 31
0.0
  0
LINE
  5
9BDC
330
1F
100
AcDbEntity
  8
0
 62
     0
 48
0.3
100
AcDbLine
 10
327.3744401295427
 20
1012.265580212441
 30
0.0
 11
327.3744401295427
 21
1059.765580212441
 31
0.0
  0
LINE
  5
9BDD
330
1F
100
AcDbEntity
  8
0
 62
     0
 48
0.3
100
AcDbLine
 10
327.3744401295427
 20
995.5155802124417
 30
0.0
 11
327.3744401295427
 21
1009.765580212441
 31
0.0
  0
LINE
  5
9BDE
330
1F
100
AcDbEntity
  8
0
 62
     0
 48
0.3
100
AcDbLine
 10
326.3744401295427
 20
1009.765580212441
 30
0.0
 11
326.3744401295427
 21
1012.265580212441
 31
0.0
  0
LINE
  5
9BDF
330
1F
100
AcDbEntity
  8
0
 62
     0
 48
0.3
100
AcDbLine
 10
320.3744401295427
 20
1009.765580212441
 30
0.0
 11
320.3744401295427
 21
1012.265580212441
 31
0.0
  0
LINE
  5
9BE0
330
1F
100
AcDbEntity
  8
0
 62
     0
 48
0.3
100
AcDbLine
 10
323.3744401295428
 20
1009.765580212441
 30
0.0
 11
326.3744401295427
 21
1009.765580212441
 31
0.0
  0
LINE
  5
9BE1
330
1F
100
AcDbEntity
  8
0
 62
     0
 48
0.3
100
AcDbLine
 10
326.3744401295427
 20
1009.765580212441
 30
0.0
 11
320.3744401295427
 21
1009.765580212441
 31
0.0
  0
LINE
  5
9BE3
330
1F
100
AcDbEntity
  8
0
 62
     0
 48
0.3
100
AcDbLine
 10
326.3744401295427
 20
1059.765580212441
 30
0.0
 11
326.3744401295427
 21
1062.265580212441
 31
0.0
  0
LINE
  5
9BE4
330
1F
100
AcDbEntity
  8
0
 62
     0
 48
0.3
100
AcDbLine
 10
320.3744401295427
 20
1059.765580212441
 30
0.0
 11
320.3744401295427
 21
1062.265580212441
 31
0.0
  0
LINE
  5
9BE5
330
1F
100
AcDbEntity
  8
0
 62
     0
 48
0.3
100
AcDbLine
 10
326.3744401295427
 20
1059.765580212441
 30
0.0
 11
320.3744401295427
 21
1059.765580212441
 31
0.0
  0
LINE
  5
9BE6
330
1F
100
AcDbEntity
  8
0
 62
     0
 48
0.3
100
AcDbLine
 10
323.3744401295428
 20
1059.765580212441
 30
0.0
 11
326.3744401295427
 21
1059.765580212441
 31
0.0
  0
LINE
  5
9BE8
330
1F
100
AcDbEntity
  8
0
 62
     0
 48
0.3
100
AcDbLine
 10
327.3744401295427
 20
1062.265580212441
 30
0.0
 11
327.3744401295427
 21
1063.265580212441
 31
0.0
  0
LINE
  5
9BE9
330
1F
100
AcDbEntity
  8
0
 62
     0
 48
0.3
100
AcDbLine
 10
327.3744401295427
 20
1062.265580212441
 30
0.0
 11
327.3744401295427
 21
1063.265580212441
 31
0.0
  0
ARC
  5
9BEA
330
1F
100
AcDbEntity
  8
0
 62
     0
 48
0.5
100
AcDbCircle
 10
212.8120328371089
 20
995.5155802124417
 30
0.0
 40
3.717025226086207
100
AcDbArc
 50
206.0633061599918
 51
262.2693566730519
  0
LINE
  5
9BED
330
1F
100
AcDbEntity
  8
0
 62
     0
 48
0.5
100
AcDbLine
 10
207.1120328371089
 20
992.5396185533948
 30
0.0
 11
205.3120328371089
 21
992.5396185533948
 31
0.0
  0
LINE
  5
9BEF
330
1F
100
AcDbEntity
  8
0
 62
     0
 48
0.5
100
AcDbLine
 10
203.3120328371089
 20
992.5396185533948
 30
0.0
 11
201.5120328371089
 21
992.5396185533948
 31
0.0
  0
LINE
  5
9BF2
330
1F
100
AcDbEntity
  8
0
 62
     0
 48
0.5
100
AcDbLine
 10
212.8120328371089
 20
992.7985549863556
 30
0.0
 11
212.3120328371089
 21
992.7985549863556
 31
0.0
  0
LINE
  5
9BF3
330
1F
100
AcDbEntity
  8
0
 62
     0
 48
0.5
100
AcDbLine
 10
212.3120328371089
 20
992.7985549863556
 30
0.0
 11
212.3120328371089
 21
991.8323375471588
 31
0.0
  0
LINE
  5
9BF6
330
1F
100
AcDbEntity
  8
0
 62
     0
 48
0.5
100
AcDbLine
 10
212.5620328371089
 20
992.7985549863556
 30
0.0
 11
213.3120328371089
 21
992.7985549863556
 31
0.0
  0
LINE
  5
9BF7
330
1F
100
AcDbEntity
  8
0
 62
     0
 48
0.5
100
AcDbLine
 10
213.3120328371089
 20
992.1481313791996
 30
0.0
 11
213.3120328371089
 21
992.7985549863556
 31
0.0
  0
LINE
  5
9BF9
330
1F
100
AcDbEntity
  8
0
 62
     0
 48
0.5
100
AcDbLine
 10
213.3120328371089
 20
992.1481313791996
 30
0.0
 11
213.3120328371089
 21
991.8265687245311
 31
0.0
  0
ARC
  5
9BFA
330
1F
100
AcDbEntity
  8
0
 62
     0
 48
0.5
100
AcDbCircle
 10
212.8120328371089
 20
995.5155802124417
 30
0.0
 40
3.717025226086207
100
AcDbArc
 50
277.7306433269472
 51
333.9366938400081
  0
ARC
  5
9BFC
330
1F
100
AcDbEntity
  8
0
 62
     0
 48
0.5
100
AcDbCircle
 10
323.3744401295428
 20
995.5155802124417
 30
0.0
 40
3.717025226086207
100
AcDbArc
 50
206.0633061599918
 51
262.2693566730519
  0
ARC
  5
9BFD
330
1F
100
AcDbEntity
  8
0
 62
     0
 48
0.5
100
AcDbCircle
 10
323.3744401295428
 20
995.5155802124417
 30
0.0
 40
3.717025226086207
100
AcDbArc
 50
277.7306433269472
 51
333.9366938400081
  0
LINE
  5
9BFE
330
1F
100
AcDbEntity
  8
0
 62
     0
 48
0.5
100
AcDbLine
 10
323.8744401295428
 20
992.1481313791996
 30
0.0
 11
323.8744401295428
 21
991.8265687245311
 31
0.0
  0
LINE
  5
9BFF
330
1F
100
AcDbEntity
  8
0
 62
     0
 48
0.5
100
AcDbLine
 10
322.8744401295427
 20
992.7985549863556
 30
0.0
 11
322.8744401295427
 21
991.8323375471588
 31
0.0
  0
LINE
  5
9C00
330
1F
100
AcDbEntity
  8
0
 62
     0
 48
0.5
100
AcDbLine
 10
323.8744401295428
 20
992.1481313791996
 30
0.0
 11
323.8744401295428
 21
992.7985549863556
 31
0.0
  0
LINE
  5
9C01
330
1F
100
AcDbEntity
  8
0
 62
     0
 48
0.5
100
AcDbLine
 10
323.1244401295427
 20
992.7985549863556
 30
0.0
 11
323.8744401295428
 21
992.7985549863556
 31
0.0
  0
LINE
  5
9C02
330
1F
100
AcDbEntity
  8
0
 62
     0
 48
0.5
100
AcDbLine
 10
323.3744401295428
 20
992.7985549863556
 30
0.0
 11
322.8744401295427
 21
992.7985549863556
 31
0.0
  0
ARC
  5
9C03
330
1F
100
AcDbEntity
  8
0
 62
     0
 48
0.5
100
AcDbCircle
 10
323.3744401295428
 20
935.0318740966249
 30
0.0
 40
58.85057920280091
100
AcDbArc
 50
93.20705263533694
 51
102.2631720397044
  0
LINE
  5
9C53
330
1F
100
AcDbEntity
  8
0
 48
0.5
100
AcDbLine
 10
207.6040224946805
 20
986.986203583041
 30
0.0
 11
207.1120328371089
 21
986.986203583041
 31
0.0
  0
LINE
  5
9C54
330
1F
100
AcDbEntity
  8
0
 48
0.5
100
AcDbLine
 10
207.6040224946805
 20
984.1362035830412
 30
0.0
 11
207.1120328371089
 21
984.1362035830412
 31
0.0
  0
LINE
  5
9C55
330
1F
100
AcDbEntity
  8
0
 48
0.5
100
AcDbLine
 10
207.6040224946805
 20
978.6362035830411
 30
0.0
 11
207.1120328371089
 21
978.6362035830411
 31
0.0
  0
LINE
  5
9C56
330
1F
100
AcDbEntity
  8
0
 48
0.5
100
AcDbLine
 10
207.6040224946805
 20
975.7862035830411
 30
0.0
 11
207.1120328371089
 21
975.7862035830411
 31
0.0
  0
LINE
  5
9C57
330
1F
100
AcDbEntity
  8
0
 48
0.5
100
AcDbLine
 10
201.0200431795372
 20
966.9787030158463
 30
0.0
 11
201.5120328371089
 21
966.9787030158463
 31
0.0
  0
LINE
  5
9C58
330
1F
100
AcDbEntity
  8
0
 48
0.5
100
AcDbLine
 10
201.0200431795372
 20
964.1287030158464
 30
0.0
 11
201.5120328371089
 21
964.1287030158464
 31
0.0
  0
LINE
  5
9C61
330
1F
100
AcDbEntity
  8
0
 48
0.5
100
AcDbLine
 10
-16.8088211188483
 20
1191.540751266739
 30
0.0
 11
61.44944800329767
 21
1191.540751266739
 31
0.0
  0
LINE
  5
9C62
330
1F
100
AcDbEntity
  8
0
 48
0.5
100
AcDbLine
 10
-16.8088211188483
 20
1131.540751266739
 30
0.0
 11
61.44944800329767
 21
1131.540751266739
 31
0.0
  0
LINE
  5
9CAB
330
1F
100
AcDbEntity
  8
0
 62
     0
 48
0.5
100
AcDbLine
 10
77.99175799682519
 20
1193.694440077534
 30
0.0
 11
77.99175799682519
 21
1131.555574191288
 31
0.0
  0
LINE
  5
9CAC
330
1F
100
AcDbEntity
  8
0
 62
     0
 48
0.5
100
AcDbLine
 10
69.94944800329768
 20
1193.694440077534
 30
0.0
 11
69.94944800329768
 21
1131.555574191288
 31
0.0
  0
LINE
  5
9CAD
330
1F
100
AcDbEntity
  8
0
 62
     0
 48
0.5
100
AcDbLine
 10
61.44944800329767
 20
1238.864898028628
 30
0.0
 11
61.44944800329767
 21
1120.583155289057
 31
0.0
  0
LINE
  5
9CAE
330
1F
100
AcDbEntity
  8
0
 62
     0
 48
0.5
100
AcDbLine
 10
86.44944800329767
 20
1120.583155289057
 30
0.0
 11
86.44944800329767
 21
1238.864898028628
 31
0.0
  0
ARC
  5
9CAF
330
1F
100
AcDbEntity
  8
0
 62
     0
 48
0.5
100
AcDbCircle
 10
73.97060300006137
 20
1136.567604193295
 30
0.0
 40
6.42573982114267
100
AcDbArc
 50
231.2599048803176
 51
308.7400951196823
  0
LINE
  5
9CB0
330
1F
100
AcDbEntity
  8
0
 62
     0
 48
0.5
100
AcDbLine
 10
61.44944800329767
 20
1120.583155289057
 30
0.0
 11
81.44944800329767
 21
1120.583155289057
 31
0.0
  0
LINE
  5
9CB1
330
1F
100
AcDbEntity
  8
0
 62
     0
 48
0.5
100
AcDbLine
 10
61.44944800329767
 20
1127.858431063778
 30
0.0
 11
86.44944800329767
 21
1127.858431063778
 31
0.0
  0
LINE
  5
9CB2
330
1F
100
AcDbEntity
  8
0
 62
     0
 48
0.5
100
AcDbLine
 10
69.94944800329768
 20
1127.858431063778
 30
0.0
 11
69.94944800329768
 21
1120.583155289057
 31
0.0
  0
ARC
  5
9CB3
330
1F
100
AcDbEntity
  8
0
 62
     0
 48
0.5
100
AcDbCircle
 10
63.60765301687161
 20
1124.220793176418
 30
0.0
 40
3.637637887360824
100
AcDbArc
 50
126.3914291071476
 51
233.6085708928523
  0
LINE
  5
9CB4
330
1F
100
AcDbEntity
  8
0
 62
     0
 48
0.5
100
AcDbLine
 10
61.44944800329767
 20
1120.583155289057
 30
0.0
 11
61.44944800329767
 21
1125.583155289057
 31
0.0
  0
LINE
  5
9CB5
330
1F
100
AcDbEntity
  8
0
 62
     0
 48
0.5
100
AcDbLine
 10
61.44944800329767
 20
1125.583155289057
 30
0.0
 11
61.44944800329767
 21
1126.583155289057
 31
0.0
  0
ARC
  5
9CB6
330
1F
100
AcDbEntity
  8
0
 62
     0
 48
0.5
100
AcDbCircle
 10
86.44944800329767
 20
1124.220793176418
 30
0.0
 40
3.637637887360824
100
AcDbArc
 50
270.0
 51
90.0
  0
LINE
  5
9CB7
330
1F
100
AcDbEntity
  8
0
 62
     0
 48
0.5
100
AcDbLine
 10
77.99175799682519
 20
1127.858431063778
 30
0.0
 11
77.99175799682519
 21
1120.583155289057
 31
0.0
  0
LINE
  5
9CB8
330
1F
100
AcDbEntity
  8
0
 62
     0
 48
0.5
100
AcDbLine
 10
81.44944800329767
 20
1120.583155289057
 30
0.0
 11
86.44944800329767
 21
1120.583155289057
 31
0.0
  0
LINE
  5
9CB9
330
1F
100
AcDbEntity
  8
0
 62
     0
 48
0.3
100
AcDbLine
 10
69.94944800329768
 20
1255.614898028629
 30
0.0
 11
69.94944800329768
 21
1303.114898028629
 31
0.0
  0
LINE
  5
9CBA
330
1F
100
AcDbEntity
  8
0
 62
     0
 48
0.3
100
AcDbLine
 10
77.94944800329767
 20
1255.614898028629
 30
0.0
 11
77.94944800329767
 21
1303.114898028629
 31
0.0
  0
LINE
  5
9CBB
330
1F
100
AcDbEntity
  8
0
 62
     0
 48
0.3
100
AcDbLine
 10
69.94944800329768
 20
1255.614898028629
 30
0.0
 11
77.94944800329767
 21
1255.614898028629
 31
0.0
  0
LINE
  5
9CBC
330
1F
100
AcDbEntity
  8
0
 62
     0
 48
0.3
100
AcDbLine
 10
73.94944800329767
 20
1253.114898028629
 30
0.0
 11
76.94944800329768
 21
1253.114898028629
 31
0.0
  0
LINE
  5
9CBD
330
1F
100
AcDbEntity
  8
0
 62
     0
 48
0.3
100
AcDbLine
 10
76.94944800329768
 20
1253.114898028629
 30
0.0
 11
70.94944800329767
 21
1253.114898028629
 31
0.0
  0
ARC
  5
9CBE
330
1F
100
AcDbEntity
  8
0
 62
     0
 48
0.5
100
AcDbCircle
 10
73.94944800329767
 20
1238.864898028628
 30
0.0
 40
3.717025226086207
100
AcDbArc
 50
277.7306433269472
 51
333.9366938400081
  0
LINE
  5
9CBF
330
1F
100
AcDbEntity
  8
0
 62
     0
 48
0.5
100
AcDbLine
 10
69.94944800329768
 20
1238.864898028628
 30
0.0
 11
77.94944800329767
 21
1238.864898028628
 31
0.0
  0
LINE
  5
9CC0
330
1F
100
AcDbEntity
  8
0
 62
     0
 48
0.3
100
AcDbLine
 10
69.94944800329768
 20
1253.114898028629
 30
0.0
 11
77.94944800329767
 21
1253.114898028629
 31
0.0
  0
LINE
  5
9CC1
330
1F
100
AcDbEntity
  8
0
 62
     0
 48
0.5
100
AcDbLine
 10
61.44944800329767
 20
1238.864898028628
 30
0.0
 11
86.44944800329767
 21
1238.864898028628
 31
0.0
  0
LINE
  5
9CC2
330
1F
100
AcDbEntity
  8
0
 62
     0
 48
0.5
100
AcDbLine
 10
61.44944800329767
 20
1237.231771115612
 30
0.0
 11
86.44944800329767
 21
1237.231771115612
 31
0.0
  0
LINE
  5
9CC3
330
1F
100
AcDbEntity
  8
0
 62
     0
 48
0.5
100
AcDbLine
 10
61.44944800329767
 20
1237.231771115612
 30
0.0
 11
86.44944800329767
 21
1237.231771115612
 31
0.0
  0
LINE
  5
9CC4
330
1F
100
AcDbEntity
  8
0
 62
     0
 48
0.5
100
AcDbLine
 10
61.44944800329767
 20
1238.864898028628
 30
0.0
 11
86.44944800329767
 21
1238.864898028628
 31
0.0
  0
LINE
  5
9CC5
330
1F
100
AcDbEntity
  8
0
 62
     0
100
AcDbLine
 10
73.94737458245936
 20
1218.028646666901
 30
0.0
 11
79.549756920341
 21
1221.265577797938
 31
0.0
  0
LINE
  5
9CC6
330
1F
100
AcDbEntity
  8
0
 62
     0
100
AcDbLine
 10
79.55183034117931
 20
1227.735848789776
 30
0.0
 11
73.95152142413611
 21
1230.969188650576
 31
0.0
  0
LINE
  5
9CC7
330
1F
100
AcDbEntity
  8
0
 62
     0
100
AcDbLine
 10
79.55183034117931
 20
1227.735848789776
 30
0.0
 11
73.95152142413611
 21
1230.969188650576
 31
0.0
  0
CIRCLE
  5
9CC8
330
1F
100
AcDbEntity
  8
0
 62
     0
100
AcDbCircle
 10
73.94944800329767
 20
1224.498917658738
 30
0.0
 40
5.601345915277712
  0
LINE
  5
9CC9
330
1F
100
AcDbEntity
  8
0
 62
     0
100
AcDbLine
 10
79.55183034117931
 20
1207.735848789776
 30
0.0
 11
73.95152142413611
 21
1210.969188650576
 31
0.0
  0
LINE
  5
9CCA
330
1F
100
AcDbEntity
  8
0
 62
     0
100
AcDbLine
 10
79.55183034117931
 20
1207.735848789776
 30
0.0
 11
73.95152142413611
 21
1210.969188650576
 31
0.0
  0
LINE
  5
9CCB
330
1F
100
AcDbEntity
  8
0
 62
     0
 48
0.5
100
AcDbLine
 10
61.44944800329767
 20
1238.864898028628
 30
0.0
 11
86.44944800329767
 21
1238.864898028628
 31
0.0
  0
ARC
  5
9CCC
330
1F
100
AcDbEntity
  8
0
 62
     0
 48
0.5
100
AcDbCircle
 10
73.97060300006137
 20
1188.682410075527
 30
0.0
 40
6.42573982114267
100
AcDbArc
 50
51.25990488031764
 51
128.7400951196823
  0
CIRCLE
  5
9CCD
330
1F
100
AcDbEntity
  8
0
 62
     0
100
AcDbCircle
 10
73.94944800329767
 20
1204.498917658738
 30
0.0
 40
5.601345915277712
  0
LINE
  5
9CCE
330
1F
100
AcDbEntity
  8
0
 62
     0
100
AcDbLine
 10
73.94737458245936
 20
1198.028646666901
 30
0.0
 11
79.549756920341
 21
1201.265577797938
 31
0.0
  0
LINE
  5
9CCF
330
1F
100
AcDbEntity
  8
0
 62
     0
100
AcDbLine
 10
68.34913908625435
 20
1207.732257519538
 30
0.0
 11
68.34706566541604
 21
1201.261986527701
 31
0.0
  0
LINE
  5
9CD0
330
1F
100
AcDbEntity
  8
0
 62
     0
 48
0.5
100
AcDbLine
 10
61.44944800329767
 20
1193.694440077534
 30
0.0
 11
69.94944800329768
 21
1193.694440077534
 31
0.0
  0
LINE
  5
9CD1
330
1F
100
AcDbEntity
  8
0
 62
     0
100
AcDbLine
 10
68.34706566541604
 20
1201.261986527701
 30
0.0
 11
73.94737458245936
 21
1198.028646666901
 31
0.0
  0
LINE
  5
9CD2
330
1F
100
AcDbEntity
  8
0
 62
     0
100
AcDbLine
 10
68.34706566541604
 20
1201.261986527701
 30
0.0
 11
73.94737458245936
 21
1198.028646666901
 31
0.0
  0
LINE
  5
9CD3
330
1F
100
AcDbEntity
  8
0
 62
     0
100
AcDbLine
 10
73.95152142413611
 20
1230.969188650576
 30
0.0
 11
68.34913908625435
 21
1227.732257519538
 31
0.0
  0
LINE
  5
9CD4
330
1F
100
AcDbEntity
  8
0
 62
     0
100
AcDbLine
 10
68.34706566541604
 20
1221.261986527701
 30
0.0
 11
73.94737458245936
 21
1218.028646666901
 31
0.0
  0
LINE
  5
9CD5
330
1F
100
AcDbEntity
  8
0
 62
     0
100
AcDbLine
 10
68.34706566541604
 20
1221.261986527701
 30
0.0
 11
73.94737458245936
 21
1218.028646666901
 31
0.0
  0
LINE
  5
9CD6
330
1F
100
AcDbEntity
  8
0
 62
     0
100
AcDbLine
 10
73.95152142413611
 20
1210.969188650576
 30
0.0
 11
68.34913908625435
 21
1207.732257519538
 31
0.0
  0
LINE
  5
9CD7
330
1F
100
AcDbEntity
  8
0
 62
     0
100
AcDbLine
 10
68.34913908625435
 20
1227.732257519538
 30
0.0
 11
68.34706566541604
 21
1221.261986527701
 31
0.0
  0
ARC
  5
9CD8
330
1F
100
AcDbEntity
  8
0
 62
     0
 48
0.5
100
AcDbCircle
 10
73.94944800329767
 20
1178.381191912812
 30
0.0
 40
58.85057920280091
100
AcDbArc
 50
93.20705263533694
 51
102.2631720397044
  0
LINE
  5
9CD9
330
1F
100
AcDbEntity
  8
0
 62
     0
 48
0.5
100
AcDbLine
 10
74.44944800329768
 20
1235.497449195386
 30
0.0
 11
74.44944800329768
 21
1235.175886540718
 31
0.0
  0
LINE
  5
9CDA
330
1F
100
AcDbEntity
  8
0
 62
     0
 48
0.5
100
AcDbLine
 10
73.44944800329767
 20
1236.147872802542
 30
0.0
 11
73.44944800329767
 21
1235.181655363346
 31
0.0
  0
LINE
  5
9CDB
330
1F
100
AcDbEntity
  8
0
 62
     0
 48
0.5
100
AcDbLine
 10
74.44944800329768
 20
1235.497449195386
 30
0.0
 11
74.44944800329768
 21
1236.147872802542
 31
0.0
  0
LINE
  5
9CDC
330
1F
100
AcDbEntity
  8
0
 62
     0
 48
0.5
100
AcDbLine
 10
73.69944800329768
 20
1236.147872802542
 30
0.0
 11
74.44944800329768
 21
1236.147872802542
 31
0.0
  0
LINE
  5
9CDD
330
1F
100
AcDbEntity
  8
0
 62
     0
 48
0.5
100
AcDbLine
 10
73.94944800329767
 20
1236.147872802542
 30
0.0
 11
73.44944800329767
 21
1236.147872802542
 31
0.0
  0
LINE
  5
9CDE
330
1F
100
AcDbEntity
  8
0
 62
     0
 48
0.3
100
AcDbLine
 10
69.94944800329768
 20
1238.864898028628
 30
0.0
 11
69.94944800329768
 21
1253.114898028629
 31
0.0
  0
ARC
  5
9CDF
330
1F
100
AcDbEntity
  8
0
 62
     0
 48
0.5
100
AcDbCircle
 10
73.94944800329767
 20
1238.864898028628
 30
0.0
 40
3.717025226086207
100
AcDbArc
 50
206.0633061599918
 51
262.2693566730519
  0
LINE
  5
9CE0
330
1F
100
AcDbEntity
  8
0
 62
     0
 48
0.3
100
AcDbLine
 10
70.94944800329767
 20
1253.114898028629
 30
0.0
 11
70.94944800329767
 21
1255.614898028629
 31
0.0
  0
LINE
  5
9CE1
330
1F
100
AcDbEntity
  8
0
 62
     0
100
AcDbLine
 10
79.549756920341
 20
1201.265577797938
 30
0.0
 11
79.55183034117931
 21
1207.735848789776
 31
0.0
  0
LINE
  5
9CE2
330
1F
100
AcDbEntity
  8
0
 62
     0
 48
0.5
100
AcDbLine
 10
77.99175799682519
 20
1193.694440077534
 30
0.0
 11
86.44944800329767
 21
1193.694440077534
 31
0.0
  0
LINE
  5
9CE3
330
1F
100
AcDbEntity
  8
0
 62
     0
100
AcDbLine
 10
79.549756920341
 20
1221.265577797938
 30
0.0
 11
79.55183034117931
 21
1227.735848789776
 31
0.0
  0
ARC
  5
9CE4
330
1F
100
AcDbEntity
  8
0
 62
     0
 48
0.5
100
AcDbCircle
 10
73.94944800329767
 20
1178.381191912812
 30
0.0
 40
58.85057920280091
100
AcDbArc
 50
77.7368279602956
 51
86.79294736466294
  0
LINE
  5
9CE5
330
1F
100
AcDbEntity
  8
0
 62
     0
 48
0.3
100
AcDbLine
 10
77.94944800329767
 20
1238.864898028628
 30
0.0
 11
77.94944800329767
 21
1253.114898028629
 31
0.0
  0
LINE
  5
9CE6
330
1F
100
AcDbEntity
  8
0
 62
     0
 48
0.3
100
AcDbLine
 10
76.94944800329768
 20
1253.114898028629
 30
0.0
 11
76.94944800329768
 21
1255.614898028629
 31
0.0
  0
LINE
  5
9CF5
330
1F
100
AcDbEntity
  8
0
 62
     0
 48
0.3
100
AcDbLine
 10
299.9494480032976
 20
1255.614898028629
 30
0.0
 11
307.9494480032976
 21
1255.614898028629
 31
0.0
  0
LINE
  5
9CF6
330
1F
100
AcDbEntity
  8
0
 62
     0
 48
0.3
100
AcDbLine
 10
306.9494480032976
 20
1253.114898028629
 30
0.0
 11
300.9494480032977
 21
1253.114898028629
 31
0.0
  0
LINE
  5
9CF7
330
1F
100
AcDbEntity
  8
0
 62
     0
 48
0.3
100
AcDbLine
 10
299.9494480032976
 20
1253.114898028629
 30
0.0
 11
307.9494480032976
 21
1253.114898028629
 31
0.0
  0
LINE
  5
9CF8
330
1F
100
AcDbEntity
  8
0
 62
     0
100
AcDbLine
 10
303.9515214241361
 20
1230.969188650576
 30
0.0
 11
298.3491390862543
 21
1227.732257519538
 31
0.0
  0
ARC
  5
9CF9
330
1F
100
AcDbEntity
  8
0
 62
     0
 48
0.5
100
AcDbCircle
 10
303.9494480032976
 20
1238.864898028628
 30
0.0
 40
3.717025226086207
100
AcDbArc
 50
206.0633061599918
 51
262.2693566730519
  0
LINE
  5
9CFA
330
1F
100
AcDbEntity
  8
0
 62
     0
100
AcDbLine
 10
298.347065665416
 20
1201.261986527701
 30
0.0
 11
303.9473745824593
 21
1198.028646666901
 31
0.0
  0
LINE
  5
9CFB
330
1F
100
AcDbEntity
  8
0
 62
     0
100
AcDbLine
 10
298.347065665416
 20
1201.261986527701
 30
0.0
 11
303.9473745824593
 21
1198.028646666901
 31
0.0
  0
LINE
  5
9CFC
330
1F
100
AcDbEntity
  8
0
 62
     0
100
AcDbLine
 10
303.9515214241361
 20
1210.969188650576
 30
0.0
 11
298.3491390862543
 21
1207.732257519538
 31
0.0
  0
LINE
  5
9CFD
330
1F
100
AcDbEntity
  8
0
 62
     0
100
AcDbLine
 10
298.347065665416
 20
1221.261986527701
 30
0.0
 11
303.9473745824593
 21
1218.028646666901
 31
0.0
  0
LINE
  5
9CFE
330
1F
100
AcDbEntity
  8
0
 62
     0
100
AcDbLine
 10
298.347065665416
 20
1221.261986527701
 30
0.0
 11
303.9473745824593
 21
1218.028646666901
 31
0.0
  0
LINE
  5
9CFF
330
1F
100
AcDbEntity
  8
0
 62
     0
 48
0.5
100
AcDbLine
 10
299.9494480032976
 20
1238.864898028628
 30
0.0
 11
307.9494480032976
 21
1238.864898028628
 31
0.0
  0
LINE
  5
9D00
330
1F
100
AcDbEntity
  8
0
 62
     0
 48
0.5
100
AcDbLine
 10
291.4494480032976
 20
1238.864898028628
 30
0.0
 11
316.4494480032976
 21
1238.864898028628
 31
0.0
  0
LINE
  5
9D01
330
1F
100
AcDbEntity
  8
0
 62
     0
 48
0.5
100
AcDbLine
 10
291.4494480032976
 20
1237.231771115612
 30
0.0
 11
316.4494480032976
 21
1237.231771115612
 31
0.0
  0
LINE
  5
9D02
330
1F
100
AcDbEntity
  8
0
 62
     0
 48
0.5
100
AcDbLine
 10
291.4494480032976
 20
1237.231771115612
 30
0.0
 11
316.4494480032976
 21
1237.231771115612
 31
0.0
  0
LINE
  5
9D03
330
1F
100
AcDbEntity
  8
0
 62
     0
 48
0.5
100
AcDbLine
 10
291.4494480032976
 20
1238.864898028628
 30
0.0
 11
316.4494480032976
 21
1238.864898028628
 31
0.0
  0
CIRCLE
  5
9D04
330
1F
100
AcDbEntity
  8
0
 62
     0
100
AcDbCircle
 10
303.9494480032976
 20
1224.498917658738
 30
0.0
 40
5.601345915277712
  0
LINE
  5
9D05
330
1F
100
AcDbEntity
  8
0
 62
     0
 48
0.5
100
AcDbLine
 10
291.4494480032976
 20
1238.864898028628
 30
0.0
 11
316.4494480032976
 21
1238.864898028628
 31
0.0
  0
ARC
  5
9D06
330
1F
100
AcDbEntity
  8
0
 62
     0
 48
0.5
100
AcDbCircle
 10
303.9706030000613
 20
1188.682410075527
 30
0.0
 40
6.42573982114267
100
AcDbArc
 50
51.25990488031764
 51
128.7400951196823
  0
CIRCLE
  5
9D07
330
1F
100
AcDbEntity
  8
0
 62
     0
100
AcDbCircle
 10
303.9494480032976
 20
1204.498917658738
 30
0.0
 40
5.601345915277712
  0
ARC
  5
9D08
330
1F
100
AcDbEntity
  8
0
 62
     0
 48
0.5
100
AcDbCircle
 10
303.9706030000613
 20
1136.567604193295
 30
0.0
 40
6.42573982114267
100
AcDbArc
 50
231.2599048803176
 51
308.7400951196823
  0
LINE
  5
9D09
330
1F
100
AcDbEntity
  8
0
 62
     0
 48
0.5
100
AcDbLine
 10
291.4494480032976
 20
1120.583155289057
 30
0.0
 11
311.4494480032977
 21
1120.583155289057
 31
0.0
  0
LINE
  5
9D0A
330
1F
100
AcDbEntity
  8
0
 62
     0
 48
0.5
100
AcDbLine
 10
291.4494480032976
 20
1127.858431063778
 30
0.0
 11
316.4494480032976
 21
1127.858431063778
 31
0.0
  0
LINE
  5
9D0B
330
1F
100
AcDbEntity
  8
0
 62
     0
 48
0.5
100
AcDbLine
 10
299.9494480032976
 20
1193.694440077534
 30
0.0
 11
299.9494480032976
 21
1131.555574191288
 31
0.0
  0
LINE
  5
9D0C
330
1F
100
AcDbEntity
  8
0
 62
     0
 48
0.5
100
AcDbLine
 10
291.4494480032976
 20
1238.864898028628
 30
0.0
 11
291.4494480032976
 21
1120.583155289057
 31
0.0
  0
ARC
  5
9D0D
330
1F
100
AcDbEntity
  8
0
 62
     0
 48
0.5
100
AcDbCircle
 10
293.6076530168715
 20
1124.220793176418
 30
0.0
 40
3.637637887360824
100
AcDbArc
 50
126.3914291071476
 51
233.6085708928523
  0
LINE
  5
9D0E
330
1F
100
AcDbEntity
  8
0
 62
     0
 48
0.5
100
AcDbLine
 10
291.4494480032976
 20
1120.583155289057
 30
0.0
 11
291.4494480032976
 21
1125.583155289057
 31
0.0
  0
LINE
  5
9D0F
330
1F
100
AcDbEntity
  8
0
 62
     0
 48
0.5
100
AcDbLine
 10
291.4494480032976
 20
1125.583155289057
 30
0.0
 11
291.4494480032976
 21
1126.583155289057
 31
0.0
  0
LINE
  5
9D10
330
1F
100
AcDbEntity
  8
0
 62
     0
 48
0.5
100
AcDbLine
 10
299.9494480032976
 20
1127.858431063778
 30
0.0
 11
299.9494480032976
 21
1120.583155289057
 31
0.0
  0
LINE
  5
9D11
330
1F
100
AcDbEntity
  8
0
 62
     0
 48
0.3
100
AcDbLine
 10
299.9494480032976
 20
1238.864898028628
 30
0.0
 11
299.9494480032976
 21
1253.114898028629
 31
0.0
  0
LINE
  5
9D12
330
1F
100
AcDbEntity
  8
0
 62
     0
 48
0.5
100
AcDbLine
 10
291.4494480032976
 20
1193.694440077534
 30
0.0
 11
299.9494480032976
 21
1193.694440077534
 31
0.0
  0
LINE
  5
9D13
330
1F
100
AcDbEntity
  8
0
 62
     0
100
AcDbLine
 10
298.3491390862543
 20
1207.732257519538
 30
0.0
 11
298.347065665416
 21
1201.261986527701
 31
0.0
  0
ARC
  5
9D14
330
1F
100
AcDbEntity
  8
0
 62
     0
 48
0.5
100
AcDbCircle
 10
303.9494480032976
 20
1178.381191912812
 30
0.0
 40
58.85057920280091
100
AcDbArc
 50
93.20705263533694
 51
102.2631720397044
  0
LINE
  5
9D15
330
1F
100
AcDbEntity
  8
0
 62
     0
100
AcDbLine
 10
298.3491390862543
 20
1227.732257519538
 30
0.0
 11
298.347065665416
 21
1221.261986527701
 31
0.0
  0
LINE
  5
9D16
330
1F
100
AcDbEntity
  8
0
 62
     0
 48
0.3
100
AcDbLine
 10
299.9494480032976
 20
1255.614898028629
 30
0.0
 11
299.9494480032976
 21
1303.114898028629
 31
0.0
  0
LINE
  5
9D17
330
1F
100
AcDbEntity
  8
0
 62
     0
 48
0.3
100
AcDbLine
 10
300.9494480032977
 20
1253.114898028629
 30
0.0
 11
300.9494480032977
 21
1255.614898028629
 31
0.0
  0
LINE
  5
9D1A
330
1F
100
AcDbEntity
  8
0
 62
     0
 48
0.5
100
AcDbLine
 10
307.9917579968252
 20
1193.694440077534
 30
0.0
 11
307.9917579968252
 21
1131.555574191288
 31
0.0
  0
LINE
  5
9D1B
330
1F
100
AcDbEntity
  8
0
 62
     0
 48
0.5
100
AcDbLine
 10
316.4494480032976
 20
1120.583155289057
 30
0.0
 11
316.4494480032976
 21
1238.864898028628
 31
0.0
  0
ARC
  5
9D1C
330
1F
100
AcDbEntity
  8
0
 62
     0
 48
0.5
100
AcDbCircle
 10
316.4494480032976
 20
1124.220793176418
 30
0.0
 40
3.637637887360824
100
AcDbArc
 50
270.0
 51
90.0
  0
LINE
  5
9D1D
330
1F
100
AcDbEntity
  8
0
 62
     0
 48
0.5
100
AcDbLine
 10
307.9917579968252
 20
1127.858431063778
 30
0.0
 11
307.9917579968252
 21
1120.583155289057
 31
0.0
  0
LINE
  5
9D1E
330
1F
100
AcDbEntity
  8
0
 62
     0
 48
0.5
100
AcDbLine
 10
311.4494480032977
 20
1120.583155289057
 30
0.0
 11
316.4494480032976
 21
1120.583155289057
 31
0.0
  0
LINE
  5
9D1F
330
1F
100
AcDbEntity
  8
0
 62
     0
 48
0.3
100
AcDbLine
 10
307.9494480032976
 20
1238.864898028628
 30
0.0
 11
307.9494480032976
 21
1253.114898028629
 31
0.0
  0
LINE
  5
9D20
330
1F
100
AcDbEntity
  8
0
 62
     0
100
AcDbLine
 10
303.9473745824593
 20
1218.028646666901
 30
0.0
 11
309.549756920341
 21
1221.265577797938
 31
0.0
  0
LINE
  5
9D21
330
1F
100
AcDbEntity
  8
0
 62
     0
 48
0.5
100
AcDbLine
 10
307.9917579968252
 20
1193.694440077534
 30
0.0
 11
316.4494480032976
 21
1193.694440077534
 31
0.0
  0
LINE
  5
9D22
330
1F
100
AcDbEntity
  8
0
 62
     0
100
AcDbLine
 10
309.5518303411793
 20
1207.735848789776
 30
0.0
 11
303.9515214241361
 21
1210.969188650576
 31
0.0
  0
LINE
  5
9D23
330
1F
100
AcDbEntity
  8
0
 62
     0
100
AcDbLine
 10
309.5518303411793
 20
1207.735848789776
 30
0.0
 11
303.9515214241361
 21
1210.969188650576
 31
0.0
  0
LINE
  5
9D24
330
1F
100
AcDbEntity
  8
0
 62
     0
100
AcDbLine
 10
303.9473745824593
 20
1198.028646666901
 30
0.0
 11
309.549756920341
 21
1201.265577797938
 31
0.0
  0
LINE
  5
9D25
330
1F
100
AcDbEntity
  8
0
 62
     0
100
AcDbLine
 10
309.549756920341
 20
1201.265577797938
 30
0.0
 11
309.5518303411793
 21
1207.735848789776
 31
0.0
  0
ARC
  5
9D26
330
1F
100
AcDbEntity
  8
0
 62
     0
 48
0.5
100
AcDbCircle
 10
303.9494480032976
 20
1178.381191912812
 30
0.0
 40
58.85057920280091
100
AcDbArc
 50
77.7368279602956
 51
86.79294736466294
  0
LINE
  5
9D27
330
1F
100
AcDbEntity
  8
0
 62
     0
100
AcDbLine
 10
309.5518303411793
 20
1227.735848789776
 30
0.0
 11
303.9515214241361
 21
1230.969188650576
 31
0.0
  0
LINE
  5
9D28
330
1F
100
AcDbEntity
  8
0
 62
     0
100
AcDbLine
 10
309.5518303411793
 20
1227.735848789776
 30
0.0
 11
303.9515214241361
 21
1230.969188650576
 31
0.0
  0
LINE
  5
9D29
330
1F
100
AcDbEntity
  8
0
 62
     0
 48
0.5
100
AcDbLine
 10
304.4494480032976
 20
1235.497449195386
 30
0.0
 11
304.4494480032976
 21
1235.175886540718
 31
0.0
  0
LINE
  5
9D2A
330
1F
100
AcDbEntity
  8
0
 62
     0
 48
0.5
100
AcDbLine
 10
303.4494480032976
 20
1236.147872802542
 30
0.0
 11
303.4494480032976
 21
1235.181655363346
 31
0.0
  0
LINE
  5
9D2B
330
1F
100
AcDbEntity
  8
0
 62
     0
 48
0.5
100
AcDbLine
 10
304.4494480032976
 20
1235.497449195386
 30
0.0
 11
304.4494480032976
 21
1236.147872802542
 31
0.0
  0
LINE
  5
9D2C
330
1F
100
AcDbEntity
  8
0
 62
     0
 48
0.5
100
AcDbLine
 10
303.6994480032976
 20
1236.147872802542
 30
0.0
 11
304.4494480032976
 21
1236.147872802542
 31
0.0
  0
LINE
  5
9D2D
330
1F
100
AcDbEntity
  8
0
 62
     0
 48
0.5
100
AcDbLine
 10
303.9494480032976
 20
1236.147872802542
 30
0.0
 11
303.4494480032976
 21
1236.147872802542
 31
0.0
  0
ARC
  5
9D2E
330
1F
100
AcDbEntity
  8
0
 62
     0
 48
0.5
100
AcDbCircle
 10
303.9494480032976
 20
1238.864898028628
 30
0.0
 40
3.717025226086207
100
AcDbArc
 50
277.7306433269472
 51
333.9366938400081
  0
LINE
  5
9D2F
330
1F
100
AcDbEntity
  8
0
 62
     0
100
AcDbLine
 10
309.549756920341
 20
1221.265577797938
 30
0.0
 11
309.5518303411793
 21
1227.735848789776
 31
0.0
  0
LINE
  5
9D30
330
1F
100
AcDbEntity
  8
0
 62
     0
 48
0.3
100
AcDbLine
 10
307.9494480032976
 20
1255.614898028629
 30
0.0
 11
307.9494480032976
 21
1303.114898028629
 31
0.0
  0
LINE
  5
9D31
330
1F
100
AcDbEntity
  8
0
 62
     0
 48
0.3
100
AcDbLine
 10
306.9494480032976
 20
1253.114898028629
 30
0.0
 11
306.9494480032976
 21
1255.614898028629
 31
0.0
  0
LINE
  5
9D32
330
1F
100
AcDbEntity
  8
0
 62
     0
 48
0.3
100
AcDbLine
 10
303.9494480032976
 20
1253.114898028629
 30
0.0
 11
306.9494480032976
 21
1253.114898028629
 31
0.0
  0
LINE
  5
9D37
330
1F
100
AcDbEntity
  8
0
 62
     0
 48
0.5
100
AcDbLine
 10
558.2398340899476
 20
1120.583155289057
 30
0.0
 11
558.2398340899476
 21
1238.864898028628
 31
0.0
  0
LINE
  5
9D38
330
1F
100
AcDbEntity
  8
0
 62
     0
 48
0.5
100
AcDbLine
 10
549.7821440834751
 20
1193.694440077534
 30
0.0
 11
549.7821440834751
 21
1131.555574191288
 31
0.0
  0
LINE
  5
9D39
330
1F
100
AcDbEntity
  8
0
 62
     0
 48
0.5
100
AcDbLine
 10
533.2398340899476
 20
1238.864898028628
 30
0.0
 11
533.2398340899476
 21
1120.583155289057
 31
0.0
  0
LINE
  5
9D3A
330
1F
100
AcDbEntity
  8
0
 62
     0
 48
0.5
100
AcDbLine
 10
541.7398340899476
 20
1193.694440077534
 30
0.0
 11
541.7398340899476
 21
1131.555574191288
 31
0.0
  0
LINE
  5
9D3B
330
1F
100
AcDbEntity
  8
0
 62
     0
 48
0.5
100
AcDbLine
 10
533.2398340899476
 20
1127.858431063778
 30
0.0
 11
558.2398340899476
 21
1127.858431063778
 31
0.0
  0
LINE
  5
9D3C
330
1F
100
AcDbEntity
  8
0
 62
     0
 48
0.5
100
AcDbLine
 10
533.2398340899476
 20
1120.583155289057
 30
0.0
 11
553.2398340899476
 21
1120.583155289057
 31
0.0
  0
ARC
  5
9D3D
330
1F
100
AcDbEntity
  8
0
 62
     0
 48
0.5
100
AcDbCircle
 10
545.7609890867113
 20
1136.567604193295
 30
0.0
 40
6.42573982114267
100
AcDbArc
 50
231.2599048803176
 51
308.7400951196823
  0
LINE
  5
9D3E
330
1F
100
AcDbEntity
  8
0
 62
     0
 48
0.5
100
AcDbLine
 10
533.2398340899476
 20
1125.583155289057
 30
0.0
 11
533.2398340899476
 21
1126.583155289057
 31
0.0
  0
LINE
  5
9D3F
330
1F
100
AcDbEntity
  8
0
 62
     0
 48
0.5
100
AcDbLine
 10
533.2398340899476
 20
1120.583155289057
 30
0.0
 11
533.2398340899476
 21
1125.583155289057
 31
0.0
  0
ARC
  5
9D40
330
1F
100
AcDbEntity
  8
0
 62
     0
 48
0.5
100
AcDbCircle
 10
535.3980391035215
 20
1124.220793176418
 30
0.0
 40
3.637637887360824
100
AcDbArc
 50
126.3914291071476
 51
233.6085708928523
  0
LINE
  5
9D41
330
1F
100
AcDbEntity
  8
0
 62
     0
 48
0.5
100
AcDbLine
 10
541.7398340899476
 20
1127.858431063778
 30
0.0
 11
541.7398340899476
 21
1120.583155289057
 31
0.0
  0
LINE
  5
9D42
330
1F
100
AcDbEntity
  8
0
 62
     0
 48
0.5
100
AcDbLine
 10
553.2398340899476
 20
1120.583155289057
 30
0.0
 11
558.2398340899476
 21
1120.583155289057
 31
0.0
  0
LINE
  5
9D43
330
1F
100
AcDbEntity
  8
0
 62
     0
 48
0.5
100
AcDbLine
 10
549.7821440834751
 20
1127.858431063778
 30
0.0
 11
549.7821440834751
 21
1120.583155289057
 31
0.0
  0
ARC
  5
9D44
330
1F
100
AcDbEntity
  8
0
 62
     0
 48
0.5
100
AcDbCircle
 10
558.2398340899476
 20
1124.220793176418
 30
0.0
 40
3.637637887360824
100
AcDbArc
 50
270.0
 51
90.0
  0
LINE
  5
9D45
330
1F
100
AcDbEntity
  8
0
 62
     0
 48
0.3
100
AcDbLine
 10
549.7398340899476
 20
1238.864898028628
 30
0.0
 11
549.7398340899476
 21
1253.114898028629
 31
0.0
  0
LINE
  5
9D46
330
1F
100
AcDbEntity
  8
0
 62
     0
 48
0.3
100
AcDbLine
 10
541.7398340899476
 20
1238.864898028628
 30
0.0
 11
541.7398340899476
 21
1253.114898028629
 31
0.0
  0
ARC
  5
9D47
330
1F
100
AcDbEntity
  8
0
 62
     0
 48
0.5
100
AcDbCircle
 10
545.7398340899476
 20
1238.864898028628
 30
0.0
 40
3.717025226086207
100
AcDbArc
 50
277.7306433269472
 51
333.9366938400081
  0
LINE
  5
9D48
330
1F
100
AcDbEntity
  8
0
 62
     0
100
AcDbLine
 10
551.3422164278292
 20
1227.735848789776
 30
0.0
 11
545.7419075107861
 21
1230.969188650576
 31
0.0
  0
LINE
  5
9D49
330
1F
100
AcDbEntity
  8
0
 62
     0
100
AcDbLine
 10
551.3422164278292
 20
1227.735848789776
 30
0.0
 11
545.7419075107861
 21
1230.969188650576
 31
0.0
  0
LINE
  5
9D4A
330
1F
100
AcDbEntity
  8
0
 62
     0
100
AcDbLine
 10
545.7377606691093
 20
1198.028646666901
 30
0.0
 11
551.3401430069909
 21
1201.265577797938
 31
0.0
  0
LINE
  5
9D4B
330
1F
100
AcDbEntity
  8
0
 62
     0
100
AcDbLine
 10
551.3422164278292
 20
1207.735848789776
 30
0.0
 11
545.7419075107861
 21
1210.969188650576
 31
0.0
  0
LINE
  5
9D4C
330
1F
100
AcDbEntity
  8
0
 62
     0
100
AcDbLine
 10
551.3422164278292
 20
1207.735848789776
 30
0.0
 11
545.7419075107861
 21
1210.969188650576
 31
0.0
  0
LINE
  5
9D4D
330
1F
100
AcDbEntity
  8
0
 62
     0
100
AcDbLine
 10
545.7377606691093
 20
1218.028646666901
 30
0.0
 11
551.3401430069909
 21
1221.265577797938
 31
0.0
  0
CIRCLE
  5
9D4E
330
1F
100
AcDbEntity
  8
0
 62
     0
100
AcDbCircle
 10
545.7398340899476
 20
1204.498917658738
 30
0.0
 40
5.601345915277712
  0
ARC
  5
9D4F
330
1F
100
AcDbEntity
  8
0
 62
     0
 48
0.5
100
AcDbCircle
 10
545.7609890867113
 20
1188.682410075527
 30
0.0
 40
6.42573982114267
100
AcDbArc
 50
51.25990488031764
 51
128.7400951196823
  0
LINE
  5
9D50
330
1F
100
AcDbEntity
  8
0
 62
     0
 48
0.5
100
AcDbLine
 10
533.2398340899476
 20
1238.864898028628
 30
0.0
 11
558.2398340899476
 21
1238.864898028628
 31
0.0
  0
CIRCLE
  5
9D51
330
1F
100
AcDbEntity
  8
0
 62
     0
100
AcDbCircle
 10
545.7398340899476
 20
1224.498917658738
 30
0.0
 40
5.601345915277712
  0
LINE
  5
9D52
330
1F
100
AcDbEntity
  8
0
 62
     0
 48
0.5
100
AcDbLine
 10
533.2398340899476
 20
1238.864898028628
 30
0.0
 11
558.2398340899476
 21
1238.864898028628
 31
0.0
  0
LINE
  5
9D53
330
1F
100
AcDbEntity
  8
0
 62
     0
 48
0.5
100
AcDbLine
 10
533.2398340899476
 20
1237.231771115612
 30
0.0
 11
558.2398340899476
 21
1237.231771115612
 31
0.0
  0
LINE
  5
9D54
330
1F
100
AcDbEntity
  8
0
 62
     0
 48
0.5
100
AcDbLine
 10
533.2398340899476
 20
1237.231771115612
 30
0.0
 11
558.2398340899476
 21
1237.231771115612
 31
0.0
  0
LINE
  5
9D55
330
1F
100
AcDbEntity
  8
0
 62
     0
 48
0.5
100
AcDbLine
 10
533.2398340899476
 20
1238.864898028628
 30
0.0
 11
558.2398340899476
 21
1238.864898028628
 31
0.0
  0
LINE
  5
9D56
330
1F
100
AcDbEntity
  8
0
 62
     0
 48
0.5
100
AcDbLine
 10
541.7398340899476
 20
1238.864898028628
 30
0.0
 11
549.7398340899476
 21
1238.864898028628
 31
0.0
  0
LINE
  5
9D57
330
1F
100
AcDbEntity
  8
0
 62
     0
100
AcDbLine
 10
540.1374517520659
 20
1221.261986527701
 30
0.0
 11
545.7377606691093
 21
1218.028646666901
 31
0.0
  0
LINE
  5
9D58
330
1F
100
AcDbEntity
  8
0
 62
     0
100
AcDbLine
 10
540.1374517520659
 20
1221.261986527701
 30
0.0
 11
545.7377606691093
 21
1218.028646666901
 31
0.0
  0
LINE
  5
9D59
330
1F
100
AcDbEntity
  8
0
 62
     0
 48
0.5
100
AcDbLine
 10
533.2398340899476
 20
1193.694440077534
 30
0.0
 11
541.7398340899476
 21
1193.694440077534
 31
0.0
  0
LINE
  5
9D5A
330
1F
100
AcDbEntity
  8
0
 62
     0
100
AcDbLine
 10
540.1395251729042
 20
1207.732257519538
 30
0.0
 11
540.1374517520659
 21
1201.261986527701
 31
0.0
  0
LINE
  5
9D5B
330
1F
100
AcDbEntity
  8
0
 62
     0
100
AcDbLine
 10
545.7419075107861
 20
1210.969188650576
 30
0.0
 11
540.1395251729042
 21
1207.732257519538
 31
0.0
  0
LINE
  5
9D5C
330
1F
100
AcDbEntity
  8
0
 62
     0
100
AcDbLine
 10
540.1374517520659
 20
1201.261986527701
 30
0.0
 11
545.7377606691093
 21
1198.028646666901
 31
0.0
  0
LINE
  5
9D5D
330
1F
100
AcDbEntity
  8
0
 62
     0
100
AcDbLine
 10
540.1374517520659
 20
1201.261986527701
 30
0.0
 11
545.7377606691093
 21
1198.028646666901
 31
0.0
  0
ARC
  5
9D5E
330
1F
100
AcDbEntity
  8
0
 62
     0
 48
0.5
100
AcDbCircle
 10
545.7398340899476
 20
1178.381191912812
 30
0.0
 40
58.85057920280091
100
AcDbArc
 50
93.20705263533694
 51
102.2631720397044
  0
LINE
  5
9D5F
330
1F
100
AcDbEntity
  8
0
 62
     0
 48
0.5
100
AcDbLine
 10
545.7398340899476
 20
1236.147872802542
 30
0.0
 11
545.2398340899476
 21
1236.147872802542
 31
0.0
  0
LINE
  5
9D60
330
1F
100
AcDbEntity
  8
0
 62
     0
 48
0.5
100
AcDbLine
 10
545.4898340899476
 20
1236.147872802542
 30
0.0
 11
546.2398340899476
 21
1236.147872802542
 31
0.0
  0
LINE
  5
9D61
330
1F
100
AcDbEntity
  8
0
 62
     0
 48
0.5
100
AcDbLine
 10
546.2398340899476
 20
1235.497449195386
 30
0.0
 11
546.2398340899476
 21
1236.147872802542
 31
0.0
  0
LINE
  5
9D62
330
1F
100
AcDbEntity
  8
0
 62
     0
 48
0.5
100
AcDbLine
 10
545.2398340899476
 20
1236.147872802542
 30
0.0
 11
545.2398340899476
 21
1235.181655363346
 31
0.0
  0
LINE
  5
9D63
330
1F
100
AcDbEntity
  8
0
 62
     0
 48
0.5
100
AcDbLine
 10
546.2398340899476
 20
1235.497449195386
 30
0.0
 11
546.2398340899476
 21
1235.175886540718
 31
0.0
  0
LINE
  5
9D64
330
1F
100
AcDbEntity
  8
0
 62
     0
100
AcDbLine
 10
540.1395251729042
 20
1227.732257519538
 30
0.0
 11
540.1374517520659
 21
1221.261986527701
 31
0.0
  0
ARC
  5
9D65
330
1F
100
AcDbEntity
  8
0
 62
     0
 48
0.5
100
AcDbCircle
 10
545.7398340899476
 20
1238.864898028628
 30
0.0
 40
3.717025226086207
100
AcDbArc
 50
206.0633061599918
 51
262.2693566730519
  0
LINE
  5
9D66
330
1F
100
AcDbEntity
  8
0
 62
     0
100
AcDbLine
 10
545.7419075107861
 20
1230.969188650576
 30
0.0
 11
540.1395251729042
 21
1227.732257519538
 31
0.0
  0
LINE
  5
9D67
330
1F
100
AcDbEntity
  8
0
 62
     0
 48
0.5
100
AcDbLine
 10
549.7821440834751
 20
1193.694440077534
 30
0.0
 11
558.2398340899476
 21
1193.694440077534
 31
0.0
  0
LINE
  5
9D68
330
1F
100
AcDbEntity
  8
0
 62
     0
100
AcDbLine
 10
551.3401430069909
 20
1201.265577797938
 30
0.0
 11
551.3422164278292
 21
1207.735848789776
 31
0.0
  0
ARC
  5
9D69
330
1F
100
AcDbEntity
  8
0
 62
     0
 48
0.5
100
AcDbCircle
 10
545.7398340899476
 20
1178.381191912812
 30
0.0
 40
58.85057920280091
100
AcDbArc
 50
77.7368279602956
 51
86.79294736466294
  0
LINE
  5
9D6A
330
1F
100
AcDbEntity
  8
0
 62
     0
100
AcDbLine
 10
551.3401430069909
 20
1221.265577797938
 30
0.0
 11
551.3422164278292
 21
1227.735848789776
 31
0.0
  0
LINE
  5
9D6B
330
1F
100
AcDbEntity
  8
0
 62
     0
 48
0.3
100
AcDbLine
 10
549.7398340899476
 20
1255.614898028629
 30
0.0
 11
549.7398340899476
 21
1303.114898028629
 31
0.0
  0
LINE
  5
9D6C
330
1F
100
AcDbEntity
  8
0
 62
     0
 48
0.3
100
AcDbLine
 10
541.7398340899476
 20
1255.614898028629
 30
0.0
 11
541.7398340899476
 21
1303.114898028629
 31
0.0
  0
LINE
  5
9D6D
330
1F
100
AcDbEntity
  8
0
 62
     0
 48
0.3
100
AcDbLine
 10
545.7398340899476
 20
1253.114898028629
 30
0.0
 11
548.7398340899476
 21
1253.114898028629
 31
0.0
  0
LINE
  5
9D6E
330
1F
100
AcDbEntity
  8
0
 62
     0
 48
0.3
100
AcDbLine
 10
541.7398340899476
 20
1253.114898028629
 30
0.0
 11
549.7398340899476
 21
1253.114898028629
 31
0.0
  0
LINE
  5
9D6F
330
1F
100
AcDbEntity
  8
0
 62
     0
 48
0.3
100
AcDbLine
 10
548.7398340899476
 20
1253.114898028629
 30
0.0
 11
542.7398340899476
 21
1253.114898028629
 31
0.0
  0
LINE
  5
9D70
330
1F
100
AcDbEntity
  8
0
 62
     0
 48
0.3
100
AcDbLine
 10
541.7398340899476
 20
1255.614898028629
 30
0.0
 11
549.7398340899476
 21
1255.614898028629
 31
0.0
  0
LINE
  5
9D71
330
1F
100
AcDbEntity
  8
0
 62
     0
 48
0.3
100
AcDbLine
 10
542.7398340899476
 20
1253.114898028629
 30
0.0
 11
542.7398340899476
 21
1255.614898028629
 31
0.0
  0
LINE
  5
9D72
330
1F
100
AcDbEntity
  8
0
 62
     0
 48
0.3
100
AcDbLine
 10
548.7398340899476
 20
1253.114898028629
 30
0.0
 11
548.7398340899476
 21
1255.614898028629
 31
0.0
  0
LINE
  5
9D7D
330
1F
100
AcDbEntity
  8
0
 48
0.5
100
AcDbLine
 10
558.2398340899476
 20
1191.540751266739
 30
0.0
 11
573.5491399282177
 21
1191.540751266739
 31
0.0
  0
LINE
  5
9D7E
330
1F
100
AcDbEntity
  8
0
 48
0.5
100
AcDbLine
 10
558.2398340899476
 20
1131.540751266739
 30
0.0
 11
573.5491399282178
 21
1131.540751266739
 31
0.0
  0
LINE
  5
9D7F
330
1F
100
AcDbEntity
  8
0
 48
0.5
100
AcDbLine
 10
316.4494480032976
 20
1131.540751266739
 30
0.0
 11
380.5300872232507
 21
1131.540751266739
 31
0.0
  0
LINE
  5
9D80
330
1F
100
AcDbEntity
  8
0
 48
0.5
100
AcDbLine
 10
316.4494480032976
 20
1191.540751266739
 30
0.0
 11
380.5300872232507
 21
1191.540751266739
 31
0.0
  0
LINE
  5
9D81
330
1F
100
AcDbEntity
  8
0
 48
0.5
100
AcDbLine
 10
86.44944800329767
 20
1191.540751266739
 30
0.0
 11
181.0559421751126
 21
1191.540751266739
 31
0.0
  0
LINE
  5
9D82
330
1F
100
AcDbEntity
  8
0
 48
0.5
100
AcDbLine
 10
86.44944800329767
 20
1131.540751266739
 30
0.0
 11
181.0559421751126
 21
1131.540751266739
 31
0.0
  0
MTEXT
  5
A3D5
102
{ACAD_REACTORS
330
A3DA
102
}
330
1F
100
AcDbEntity
  8
0
 62
     0
 48
0.3
100
AcDbMText
 10
498.1587655336574
 20
1325.852213554784
 30
0.0
 40
5.0
 41
0.0
 71
     9
 72
     1
  1
ＳＵＳスプリング
 73
     1
 44
1.0
  0
LEADER
  5
A3DA
330
1F
100
AcDbEntity
  8
0
 62
     0
 48
0.3
100
AcDbLeader
  3
ISO-25
 73
     0
 40
2.0
 41
18.26666666666667
 76
     3
 10
522.5381721748785
 20
1307.893569030448
 30
0.0
 10
503.408607281554
 20
1327.352213554784
 30
0.0
 10
499.4087655336573
 20
1327.352213554784
 30
0.0
213
0.0
223
1.5
233
0.0
1001
ACAD
1000
DSTYLE
1002
{
1070
   147
1040
0.625
1070
    77
1070
     0
1002
}
  0
LINE
  5
A49A
330
1F
100
AcDbEntity
  8
0
 48
0.5
100
AcDbLine
 10
573.5491399282177
 20
1191.540751266739
 30
0.0
 11
573.5491399282178
 21
1131.540751266739
 31
0.0
  0
LINE
  5
A49C
330
1F
100
AcDbEntity
  8
0
 48
0.5
100
AcDbLine
 10
573.5491399282177
 20
1191.540751266739
 30
0.0
 11
575.5491399282177
 21
1191.540751266739
 31
0.0
  0
LINE
  5
A49D
330
1F
100
AcDbEntity
  8
0
 48
0.5
100
AcDbLine
 10
575.5491399282177
 20
1191.540751266739
 30
0.0
 11
576.5491399282177
 21
1191.540751266739
 31
0.0
  0
LINE
  5
A49E
330
1F
100
AcDbEntity
  8
0
 48
0.5
100
AcDbLine
 10
576.5491399282177
 20
1191.540751266739
 30
0.0
 11
576.5491399282177
 21
1131.540751266739
 31
0.0
  0
LINE
  5
A49F
330
1F
100
AcDbEntity
  8
0
 48
0.5
100
AcDbLine
 10
576.5491399282177
 20
1131.540751266739
 30
0.0
 11
573.5491399282178
 21
1131.540751266739
 31
0.0
  0
DIMENSION
  5
A4A0
330
1F
100
AcDbEntity
  8
0
 48
0.5
100
AcDbDimension
  2
*D2
 10
363.1401292032455
 20
1191.540751266739
 30
0.0
 11
357.1401292032453
 21
1247.921794600604
 31
0.0
 70
    33
  1
112
 71
     5
 42
112.76208666773
  3
ISO-25
100
AcDbAlignedDimension
 13
367.584390633212
 23
1304.302837934469
 33
0.0
 14
367.584390633212
 24
1191.540751266739
 34
0.0
  0
DIMENSION
  5
A4AE
330
1F
100
AcDbEntity
  8
0
 48
0.5
100
AcDbDimension
  2
*D3
 10
337.3915219441337
 20
1191.540751266739
 30
0.0
 11
331.3915219441335
 21
1222.952824647683
 31
0.0
 70
    33
  1
62
 71
     5
 42
62.82414676188977
  3
ISO-25
100
AcDbAlignedDimension
 13
327.9445736456409
 23
1254.364898028629
 33
0.0
 14
327.9445736456409
 24
1191.540751266739
 34
0.0
  0
DIMENSION
  5
A4CD
330
1F
100
AcDbEntity
  8
0
 48
0.5
100
AcDbDimension
  2
*D4
 10
234.2985940059356
 20
995.5155802124419
 30
0.0
 11
228.2985940059355
 21
1031.390580212441
 31
0.0
 70
    33
 71
     5
 42
71.74999999999989
  3
ISO-25
100
AcDbAlignedDimension
 13
212.8120328371089
 23
1067.265580212441
 33
0.0
 14
212.8120328371089
 24
995.5155802124419
 34
0.0
  0
DIMENSION
  5
A4DA
330
1F
100
AcDbEntity
  8
0
 48
0.5
100
AcDbDimension
  2
*D5
 10
224.4985147315318
 20
1059.765580212441
 30
0.0
 11
224.4985147315317
 21
1081.551294498156
 31
0.0
 70
   161
 71
     5
 42
2.5
  3
ISO-25
100
AcDbAlignedDimension
 13
215.8120328371089
 23
1062.265580212441
 33
0.0
 14
215.8120328371089
 24
1059.765580212441
 34
0.0
  0
DIMENSION
  5
A4F4
330
1F
100
AcDbEntity
  8
0
 48
0.5
100
AcDbDimension
  2
*D6
 10
236.1120328371089
 20
918.4877644775459
 30
0.0
 11
254.9691756942518
 21
924.487764477546
 31
0.0
 70
    33
 71
     5
 42
1.800000000000011
  3
ISO-25
100
AcDbAlignedDimension
 13
234.3120328371089
 23
918.1914334505522
 33
0.0
 14
236.1120328371089
 24
918.1914334505522
 34
0.0
  0
DIMENSION
  5
A503
330
1F
100
AcDbEntity
  8
0
 48
0.5
100
AcDbDimension
  2
*D7
 10
234.2985940059356
 20
993.8824532994258
 30
0.0
 11
228.2985940059355
 21
978.8824532994258
 31
0.0
 70
    33
  1
2
 71
     5
 42
1.633126913016099
  3
ISO-25
100
AcDbAlignedDimension
 13
220.3120328371089
 23
995.5155802124419
 33
0.0
 14
220.3120328371089
 24
993.8824532994258
 34
0.0
  0
LEADER
  5
A51D
330
1F
100
AcDbEntity
  8
0
 48
0.5
100
AcDbLeader
  3
ISO-25
 73
     0
 40
6.0
 41
10.57142857142856
 76
     2
 10
212.0951133619297
 20
961.6727794605399
 30
0.0
 10
234.0649815136698
 20
961.6727794605402
 30
0.0
340
A51E
213
0.0
223
-3.0
233
0.0
1001
ACAD
1000
DSTYLE
1002
{
1070
   147
1040
3.0
1070
    77
1070
     0
1002
}
  0
MTEXT
  5
A51E
102
{ACAD_REACTORS
330
A51D
102
}
330
1F
100
AcDbEntity
  8
0
 48
0.5
100
AcDbMText
 10
237.0649815136698
 20
964.6727794605402
 30
0.0
 40
6.0
 41
20.438
 71
     1
 72
     1
  1
M6
 73
     1
 44
1.0
  0
DIMENSION
  5
A51F
330
1F
100
AcDbEntity
  8
0
 48
0.5
100
AcDbDimension
  2
*D8
 10
216.8120328371089
 20
1046.614340787801
 30
0.0
 11
191.0977471228232
 21
1046.614340787801
 31
0.0
 70
   161
  1
%%c8
 71
     5
 42
8.0
  3
ISO-25
100
AcDbAlignedDimension
 13
208.8120328371089
 23
1041.390834405378
 33
0.0
 14
216.8120328371089
 24
1041.390834405378
 34
0.0
  0
LEADER
  5
A544
330
1F
100
AcDbEntity
  8
0
 48
0.5
100
AcDbLeader
  3
ISO-25
 73
     0
 40
6.000000000000001
 41
22.57142857142857
 76
     2
 10
212.8120328371089
 20
1011.015580212441
 30
0.0
 10
193.0956691400817
 20
1011.015580212441
 30
0.0
340
A545
213
0.0
223
3.0
233
0.0
1001
ACAD
1000
DSTYLE
1002
{
1070
   147
1040
3.0
1070
    77
1070
     0
1002
}
  0
MTEXT
  5
A545
102
{ACAD_REACTORS
330
A544
102
}
330
1F
100
AcDbEntity
  8
0
 48
0.5
100
AcDbMText
 10
190.0956691400817
 20
1008.015580212441
 30
0.0
 40
6.0
 41
0.0
 71
     9
 72
     1
  1
2-%%c2
 73
     1
 44
1.0
  0
MTEXT
  5
A546
330
1F
100
AcDbEntity
  8
0
 48
0.5
100
AcDbMText
 10
357.7215549150596
 20
822.5308658634675
 30
0.0
 40
6.0
 41
170.9279999999999
 71
     4
 72
     5
  1
　防鳥ワイヤー　丸パイプ用　%%c0.8
 73
     1
 44
1.0
  0
LINE
  5
A54C
330
1F
100
AcDbEntity
  8
0
 48
0.5
100
AcDbLine
 10
445.888485232137
 20
1191.540751266739
 30
0.0
 11
533.2398340899476
 21
1191.540751266739
 31
0.0
  0
LINE
  5
A54D
330
1F
100
AcDbEntity
  8
0
 48
0.5
100
AcDbLine
 10
445.888485232137
 20
1131.540751266739
 30
0.0
 11
533.2398340899476
 21
1131.540751266739
 31
0.0
  0
LINE
  5
A54E
330
1F
100
AcDbEntity
  8
0
 48
0.5
100
AcDbLine
 10
240.4805100634136
 20
1131.540751266739
 30
0.0
 11
291.4494480032976
 21
1131.540751266739
 31
0.0
  0
LINE
  5
A54F
330
1F
100
AcDbEntity
  8
0
 48
0.5
100
AcDbLine
 10
240.4805100634136
 20
1191.540751266739
 30
0.0
 11
291.4494480032976
 21
1191.540751266739
 31
0.0
  0
MTEXT
  5
A5D6
330
1F
100
AcDbEntity
  8
0
 48
0.5
100
AcDbMText
 10
545.2685264585429
 20
1014.355979912225
 30
0.0
 40
2.5
 41
157.5723
 71
     4
 72
     5
  1
　{\H2.4x;パイプサイズ}
 73
     1
 44
1.0
  0
MTEXT
  5
A5D8
330
1F
100
AcDbEntity
  8
0
 48
0.5
100
AcDbMText
 10
559.2555093804865
 20
994.7468713620196
 30
0.0
 40
6.0
 41
48.6603
 71
     5
 72
     5
  1
%%c21.7
 73
     1
 44
1.0
  0
MTEXT
  5
A5E2
330
1F
100
AcDbEntity
  8
0
 48
0.5
100
AcDbMText
 10
559.2555093804865
 20
982.7468713620197
 30
0.0
 40
6.0
 41
48.6603
 71
     5
 72
     5
  1
%%c27.2
 73
     1
 44
1.0
  0
MTEXT
  5
A5E3
330
1F
100
AcDbEntity
  8
0
 48
0.5
100
AcDbMText
 10
559.2555093804865
 20
970.7468713620196
 30
0.0
 40
6.0
 41
48.6603
 71
     5
 72
     5
  1
%%c34.0
 73
     1
 44
1.0
  0
MTEXT
  5
A5E4
330
1F
100
AcDbEntity
  8
0
 48
0.5
100
AcDbMText
 10
559.2555093804865
 20
958.7468713620197
 30
0.0
 40
6.0
 41
48.6603
 71
     5
 72
     5
  1
%%c42.7
 73
     1
 44
1.0
  0
MTEXT
  5
A5E5
330
1F
100
AcDbEntity
  8
0
 48
0.5
100
AcDbMText
 10
559.2555093804865
 20
946.7468713620196
 30
0.0
 40
6.0
 41
48.6603
 71
     5
 72
     5
  1
%%c48.6
 73
     1
 44
1.0
  0
MTEXT
  5
A5E6
330
1F
100
AcDbEntity
  8
0
 48
0.5
100
AcDbMText
 10
559.2555093804865
 20
934.7468713620196
 30
0.0
 40
6.0
 41
48.6603
 71
     5
 72
     5
  1
%%c60.5
 73
     1
 44
1.0
  0
MTEXT
  5
A5E7
330
1F
100
AcDbEntity
  8
0
 48
0.5
100
AcDbMText
 10
559.2555093804865
 20
922.7468713620195
 30
0.0
 40
6.0
 41
48.6603
 71
     5
 72
     5
  1
%%c76.3
 73
     1
 44
1.0
  0
MTEXT
  5
A5E8
330
1F
100
AcDbEntity
  8
0
 48
0.5
100
AcDbMText
 10
558.5555093804864
 20
910.7468713620196
 30
0.0
 40
6.0
 41
48.6603
 71
     5
 72
     5
  1
%%c89.1
 73
     1
 44
1.0
  0
MTEXT
  5
A5E9
330
1F
100
AcDbEntity
  8
0
 48
0.5
100
AcDbMText
 10
562.4109775606009
 20
898.7468713620197
 30
0.0
 40
6.0
 41
48.6603
 71
     5
 72
     5
  1
%%c101.6
 73
     1
 44
1.0
  0
MTEXT
  5
A5EA
330
1F
100
AcDbEntity
  8
0
 48
0.5
100
AcDbMText
 10
562.4109775606009
 20
886.7468713620196
 30
0.0
 40
6.0
 41
48.6603
 71
     5
 72
     5
  1
%%c114.3
 73
     1
 44
1.0
  0
LWPOLYLINE
  5
A5EB
330
1F
100
AcDbEntity
  8
0
 48
0.5
100
AcDbPolyline
 90
        4
 70
     1
 43
0.0
 10
544.251358593604
 20
1020.401022194643
 10
593.2308336774381
 20
1020.401022194643
 10
593.2308336774381
 20
1008.728909460978
 10
544.251358593604
 20
1008.728909460978
  0
LINE
  5
A628
330
1F
100
AcDbEntity
  8
0
 48
0.5
100
AcDbLine
 10
582.4708996936514
 20
998.9344096449482
 30
0.0
 11
593.1549434956023
 21
998.9344096449482
 31
0.0
  0
LINE
  5
A629
330
1F
100
AcDbEntity
  8
0
 48
0.5
100
AcDbLine
 10
593.1549434956023
 20
998.9344096449482
 30
0.0
 11
593.1549434956023
 21
930.8623851359826
 31
0.0
  0
LINE
  5
A62A
330
1F
100
AcDbEntity
  8
0
 48
0.5
100
AcDbLine
 10
582.4708996936514
 20
930.8623851359824
 30
0.0
 11
593.1549434956023
 21
930.8623851359826
 31
0.0
  0
LINE
  5
A62B
330
1F
100
AcDbEntity
  8
0
 48
0.5
100
AcDbLine
 10
582.4708996936514
 20
926.2664690237304
 30
0.0
 11
593.1549434956023
 21
926.2664690237304
 31
0.0
  0
LINE
  5
A62C
330
1F
100
AcDbEntity
  8
0
 48
0.5
100
AcDbLine
 10
593.1549434956023
 20
926.2664690237304
 30
0.0
 11
593.1549434956023
 21
881.3160631423334
 31
0.0
  0
LINE
  5
A62D
330
1F
100
AcDbEntity
  8
0
 48
0.5
100
AcDbLine
 10
582.4708996936514
 20
881.3160631423333
 30
0.0
 11
593.1549434956023
 21
881.3160631423334
 31
0.0
  0
MTEXT
  5
A62F
330
1F
100
AcDbEntity
  8
0
 48
0.5
100
AcDbMText
 10
613.0602434956023
 20
963.55061654244
 30
0.0
 40
6.0
 41
39.8106
 71
     5
 72
     5
  1
 板厚=1.8
 73
     1
 44
1.0
  0
MTEXT
  5
A630
330
1F
100
AcDbEntity
  8
0
 48
0.5
100
AcDbMText
 10
613.0602434956023
 20
901.9942949617963
 30
0.0
 40
6.0
 41
39.8106
 71
     5
 72
     5
  1
 板厚=2.3
 73
     1
 44
1.0
  0
LINE
  5
A838
330
1F
100
AcDbEntity
  8
0
 62
     0
 48
0.1
100
AcDbLine
 10
83.95240738143991
 20
1304.476901599956
 30
0.0
 11
84.89678567903116
 21
1304.476901599956
 31
0.0
  0
LINE
  5
A839
330
1F
100
AcDbEntity
  8
0
 62
     0
 48
0.1
100
AcDbLine
 10
84.89678567903116
 20
1305.176901599956
 30
0.0
 11
70.90500479417073
 21
1305.176901599956
 31
0.0
  0
LINE
  5
A83A
330
1F
100
AcDbEntity
  8
0
 62
     0
 48
0.1
100
AcDbLine
 10
31.96697791113911
 20
1303.626901599956
 30
0.0
 11
-16.8088211188483
 21
1303.626901599956
 31
0.0
  0
LINE
  5
A83B
330
1F
100
AcDbEntity
  8
0
 62
     0
 48
0.1
100
AcDbLine
 10
-16.8088211188483
 20
1304.426901599956
 30
0.0
 11
31.96697791113911
 21
1304.426901599956
 31
0.0
  0
LINE
  5
A83C
330
1F
100
AcDbEntity
  8
0
 62
     0
 48
0.1
100
AcDbLine
 10
35.06697791113913
 20
1308.126901599956
 30
0.0
 11
42.96697791113911
 21
1308.126901599956
 31
0.0
  0
LINE
  5
A83D
330
1F
100
AcDbEntity
  8
0
 62
     0
 48
0.1
100
AcDbLine
 10
42.96697791113911
 20
1300.126901599956
 30
0.0
 11
35.06697791113913
 21
1300.126901599956
 31
0.0
  0
LINE
  5
A83E
330
1F
100
AcDbEntity
  8
0
 62
     0
 48
0.1
100
AcDbLine
 10
34.96697791113911
 20
1300.226901599956
 30
0.0
 11
34.96697791113911
 21
1308.026901599956
 31
0.0
  0
LINE
  5
A83F
330
1F
100
AcDbEntity
  8
0
 62
     0
 48
0.1
100
AcDbLine
 10
34.96697791113911
 20
1300.226901599956
 30
0.0
 11
35.06697791113913
 21
1300.126901599956
 31
0.0
  0
LINE
  5
A840
330
1F
100
AcDbEntity
  8
0
 62
     0
 48
0.1
100
AcDbLine
 10
31.96697791113911
 20
1303.626901599956
 30
0.0
 11
34.96697791113911
 21
1303.626901599956
 31
0.0
  0
LINE
  5
A841
330
1F
100
AcDbEntity
  8
0
 62
     0
 48
0.1
100
AcDbLine
 10
31.96697791113911
 20
1304.426901599956
 30
0.0
 11
34.96697791113911
 21
1304.426901599956
 31
0.0
  0
LINE
  5
A842
330
1F
100
AcDbEntity
  8
0
 62
     0
 48
0.1
100
AcDbLine
 10
35.06697791113913
 20
1308.126901599956
 30
0.0
 11
34.96697791113911
 21
1308.026901599956
 31
0.0
  0
ARC
  5
A843
330
1F
100
AcDbEntity
  8
0
 62
     0
 48
0.1
100
AcDbCircle
 10
60.32203402554239
 20
1300.97875335528
 30
0.0
 40
0.3499999999999943
100
AcDbArc
 50
181.8669013737792
 51
1.866901373779202
  0
ARC
  5
A844
330
1F
100
AcDbEntity
  8
0
 62
     0
 48
0.1
100
AcDbCircle
 10
59.62203402554246
 20
1300.97875335528
 30
0.0
 40
0.3499999999999943
100
AcDbArc
 50
181.8669013737792
 51
1.866901373779202
  0
ARC
  5
A845
330
1F
100
AcDbEntity
  8
0
 62
     0
 48
0.1
100
AcDbCircle
 10
61.02203402554244
 20
1300.97875335528
 30
0.0
 40
0.3499999999999943
100
AcDbArc
 50
181.8669013737792
 51
1.866901373779202
  0
ARC
  5
A846
330
1F
100
AcDbEntity
  8
0
 62
     0
 48
0.1
100
AcDbCircle
 10
61.72203402554249
 20
1300.97875335528
 30
0.0
 40
0.3499999999999943
100
AcDbArc
 50
181.8669013737792
 51
1.866901373779202
  0
ARC
  5
A847
330
1F
100
AcDbEntity
  8
0
 62
     0
 48
0.1
100
AcDbCircle
 10
62.42203402554242
 20
1300.97875335528
 30
0.0
 40
0.3499999999999943
100
AcDbArc
 50
181.8669013737792
 51
1.866901373779202
  0
ARC
  5
A848
330
1F
100
AcDbEntity
  8
0
 62
     0
 48
0.1
100
AcDbCircle
 10
63.12203402554246
 20
1300.97875335528
 30
0.0
 40
0.3499999999999943
100
AcDbArc
 50
181.8669013737792
 51
1.866901373779202
  0
ARC
  5
A849
330
1F
100
AcDbEntity
  8
0
 62
     0
 48
0.1
100
AcDbCircle
 10
58.22203402554248
 20
1300.97875335528
 30
0.0
 40
0.3499999999999943
100
AcDbArc
 50
181.8669013737792
 51
1.866901373779202
  0
ARC
  5
A84A
330
1F
100
AcDbEntity
  8
0
 62
     0
 48
0.1
100
AcDbCircle
 10
56.12203402554246
 20
1300.97875335528
 30
0.0
 40
0.3499999999999943
100
AcDbArc
 50
181.8669013737792
 51
1.866901373779202
  0
ARC
  5
A84B
330
1F
100
AcDbEntity
  8
0
 62
     0
 48
0.1
100
AcDbCircle
 10
56.8220340255424
 20
1300.97875335528
 30
0.0
 40
0.3499999999999943
100
AcDbArc
 50
181.8669013737792
 51
1.866901373779202
  0
ARC
  5
A84C
330
1F
100
AcDbEntity
  8
0
 62
     0
 48
0.1
100
AcDbCircle
 10
57.52203402554243
 20
1300.97875335528
 30
0.0
 40
0.3499999999999943
100
AcDbArc
 50
181.8669013737792
 51
1.866901373779202
  0
ARC
  5
A84D
330
1F
100
AcDbEntity
  8
0
 62
     0
 48
0.1
100
AcDbCircle
 10
48.42203402554241
 20
1300.97875335528
 30
0.0
 40
0.3499999999999943
100
AcDbArc
 50
181.8669013737792
 51
1.866901373779202
  0
ARC
  5
A84E
330
1F
100
AcDbEntity
  8
0
 62
     0
 48
0.1
100
AcDbCircle
 10
47.72203402554248
 20
1300.97875335528
 30
0.0
 40
0.3499999999999943
100
AcDbArc
 50
181.8669013737792
 51
1.866901373779202
  0
ARC
  5
A84F
330
1F
100
AcDbEntity
  8
0
 62
     0
 48
0.1
100
AcDbCircle
 10
54.72203402554248
 20
1300.97875335528
 30
0.0
 40
0.3499999999999943
100
AcDbArc
 50
181.8669013737792
 51
1.866901373779202
  0
ARC
  5
A850
330
1F
100
AcDbEntity
  8
0
 62
     0
 48
0.1
100
AcDbCircle
 10
49.12203402554246
 20
1300.97875335528
 30
0.0
 40
0.3499999999999943
100
AcDbArc
 50
181.8669013737792
 51
1.866901373779202
  0
ARC
  5
A851
330
1F
100
AcDbEntity
  8
0
 62
     0
 48
0.1
100
AcDbCircle
 10
49.82203402554239
 20
1300.97875335528
 30
0.0
 40
0.3499999999999943
100
AcDbArc
 50
181.8669013737792
 51
1.866901373779202
  0
ARC
  5
A852
330
1F
100
AcDbEntity
  8
0
 62
     0
 48
0.1
100
AcDbCircle
 10
50.52203402554244
 20
1300.97875335528
 30
0.0
 40
0.3499999999999943
100
AcDbArc
 50
181.8669013737792
 51
1.866901373779202
  0
ARC
  5
A853
330
1F
100
AcDbEntity
  8
0
 62
     0
 48
0.1
100
AcDbCircle
 10
51.22203402554248
 20
1300.97875335528
 30
0.0
 40
0.3499999999999943
100
AcDbArc
 50
181.8669013737792
 51
1.866901373779202
  0
ARC
  5
A854
330
1F
100
AcDbEntity
  8
0
 62
     0
 48
0.1
100
AcDbCircle
 10
51.92203402554241
 20
1300.97875335528
 30
0.0
 40
0.3499999999999943
100
AcDbArc
 50
181.8669013737792
 51
1.866901373779202
  0
ARC
  5
A855
330
1F
100
AcDbEntity
  8
0
 62
     0
 48
0.1
100
AcDbCircle
 10
52.62203402554246
 20
1300.97875335528
 30
0.0
 40
0.3499999999999943
100
AcDbArc
 50
181.8669013737792
 51
1.866901373779202
  0
ARC
  5
A856
330
1F
100
AcDbEntity
  8
0
 62
     0
 48
0.1
100
AcDbCircle
 10
53.32203402554239
 20
1300.97875335528
 30
0.0
 40
0.3499999999999943
100
AcDbArc
 50
181.8669013737792
 51
1.866901373779202
  0
ARC
  5
A857
330
1F
100
AcDbEntity
  8
0
 62
     0
 48
0.1
100
AcDbCircle
 10
54.02203402554244
 20
1300.97875335528
 30
0.0
 40
0.3499999999999943
100
AcDbArc
 50
181.8669013737792
 51
1.866901373779202
  0
ARC
  5
A858
330
1F
100
AcDbEntity
  8
0
 62
     0
 48
0.1
100
AcDbCircle
 10
55.42203402554242
 20
1300.97875335528
 30
0.0
 40
0.3499999999999943
100
AcDbArc
 50
181.8669013737792
 51
1.866901373779202
  0
ARC
  5
A859
330
1F
100
AcDbEntity
  8
0
 62
     0
 48
0.1
100
AcDbCircle
 10
58.92203402554241
 20
1300.97875335528
 30
0.0
 40
0.3499999999999943
100
AcDbArc
 50
181.8669013737792
 51
1.866901373779202
  0
ARC
  5
A85A
330
1F
100
AcDbEntity
  8
0
 62
     0
 48
0.1
100
AcDbCircle
 10
46.32203402554239
 20
1300.97875335528
 30
0.0
 40
0.3499999999999943
100
AcDbArc
 50
181.8669013737792
 51
1.866901373779202
  0
ARC
  5
A85B
330
1F
100
AcDbEntity
  8
0
 62
     0
 48
0.1
100
AcDbCircle
 10
44.92203402554241
 20
1300.97875335528
 30
0.0
 40
0.3499999999999943
100
AcDbArc
 50
181.8669013737792
 51
1.866901373779202
  0
ARC
  5
A85C
330
1F
100
AcDbEntity
  8
0
 62
     0
 48
0.1
100
AcDbCircle
 10
45.62203402554246
 20
1300.97875335528
 30
0.0
 40
0.3499999999999943
100
AcDbArc
 50
181.8669013737792
 51
1.866901373779202
  0
ARC
  5
A85D
330
1F
100
AcDbEntity
  8
0
 62
     0
 48
0.1
100
AcDbCircle
 10
43.52203402554244
 20
1300.97875335528
 30
0.0
 40
0.3499999999999943
100
AcDbArc
 50
181.8669013737792
 51
1.866901373779202
  0
LINE
  5
A85E
330
1F
100
AcDbEntity
  8
0
 62
     0
 48
0.1
100
AcDbLine
 10
42.96697791113911
 20
1308.126901599956
 30
0.0
 11
42.96697791113911
 21
1300.126901599956
 31
0.0
  0
ARC
  5
A85F
330
1F
100
AcDbEntity
  8
0
 62
     0
 48
0.1
100
AcDbCircle
 10
44.22203402554248
 20
1300.97875335528
 30
0.0
 40
0.3499999999999943
100
AcDbArc
 50
181.8669013737792
 51
1.866901373779202
  0
ARC
  5
A860
330
1F
100
AcDbEntity
  8
0
 62
     0
 48
0.1
100
AcDbCircle
 10
47.02203402554244
 20
1300.97875335528
 30
0.0
 40
0.3499999999999943
100
AcDbArc
 50
181.8669013737792
 51
1.866901373779202
  0
ARC
  5
A861
330
1F
100
AcDbEntity
  8
0
 62
     0
 48
0.1
100
AcDbCircle
 10
61.51679381950464
 20
1307.275409329512
 30
0.0
 40
0.3499999999999943
100
AcDbArc
 50
3.327208078953481
 51
181.8669013737792
  0
LINE
  5
A862
330
1F
100
AcDbEntity
  8
0
 62
     0
 48
0.1
100
AcDbLine
 10
61.16697959871408
 20
1307.264007095843
 30
0.0
 11
61.37221980475181
 21
1300.967351121611
 31
0.0
  0
ARC
  5
A863
330
1F
100
AcDbEntity
  8
0
 62
     0
 48
0.1
100
AcDbCircle
 10
49.61679381950466
 20
1307.275409329512
 30
0.0
 40
0.3499999999999943
100
AcDbArc
 50
3.327208078953481
 51
181.8669013737792
  0
ARC
  5
A864
330
1F
100
AcDbEntity
  8
0
 62
     0
 48
0.1
100
AcDbCircle
 10
48.91679381950473
 20
1307.275409329512
 30
0.0
 40
0.3499999999999943
100
AcDbArc
 50
3.327208078953481
 51
181.8669013737792
  0
ARC
  5
A865
330
1F
100
AcDbEntity
  8
0
 62
     0
 48
0.1
100
AcDbCircle
 10
48.21679381950469
 20
1307.275409329512
 30
0.0
 40
0.3499999999999943
100
AcDbArc
 50
3.327208078953481
 51
181.8669013737792
  0
LINE
  5
A866
330
1F
100
AcDbEntity
  8
0
 62
     0
 48
0.1
100
AcDbLine
 10
48.56697959871405
 20
1307.264007095843
 30
0.0
 11
48.7722198047519
 21
1300.967351121611
 31
0.0
  0
LINE
  5
A867
330
1F
100
AcDbEntity
  8
0
 62
     0
 48
0.1
100
AcDbLine
 10
47.86697959871412
 20
1307.264007095843
 30
0.0
 11
48.07221980475185
 21
1300.967351121611
 31
0.0
  0
LINE
  5
A868
330
1F
100
AcDbEntity
  8
0
 62
     0
 48
0.1
100
AcDbLine
 10
49.2669795987141
 20
1307.264007095843
 30
0.0
 11
49.47221980475183
 21
1300.967351121611
 31
0.0
  0
ARC
  5
A869
330
1F
100
AcDbEntity
  8
0
 62
     0
 48
0.1
100
AcDbCircle
 10
46.81679381950471
 20
1307.275409329512
 30
0.0
 40
0.3499999999999943
100
AcDbArc
 50
3.327208078953481
 51
181.8669013737792
  0
ARC
  5
A86A
330
1F
100
AcDbEntity
  8
0
 62
     0
 48
0.1
100
AcDbCircle
 10
44.71679381950468
 20
1307.275409329512
 30
0.0
 40
0.3499999999999943
100
AcDbArc
 50
3.327208078953481
 51
181.8669013737792
  0
ARC
  5
A86B
330
1F
100
AcDbEntity
  8
0
 62
     0
 48
0.1
100
AcDbCircle
 10
45.41679381950473
 20
1307.275409329512
 30
0.0
 40
0.3499999999999943
100
AcDbArc
 50
3.327208078953481
 51
181.8669013737792
  0
ARC
  5
A86C
330
1F
100
AcDbEntity
  8
0
 62
     0
 48
0.1
100
AcDbCircle
 10
46.11679381950466
 20
1307.275409329512
 30
0.0
 40
0.3499999999999943
100
AcDbArc
 50
3.327208078953481
 51
181.8669013737792
  0
LINE
  5
A86D
330
1F
100
AcDbEntity
  8
0
 62
     0
 48
0.1
100
AcDbLine
 10
44.36697959871412
 20
1307.264007095843
 30
0.0
 11
44.57221980475185
 21
1300.967351121611
 31
0.0
  0
LINE
  5
A86E
330
1F
100
AcDbEntity
  8
0
 62
     0
 48
0.1
100
AcDbLine
 10
45.06697959871405
 20
1307.264007095843
 30
0.0
 11
45.27221980475189
 21
1300.967351121611
 31
0.0
  0
LINE
  5
A86F
330
1F
100
AcDbEntity
  8
0
 62
     0
 48
0.1
100
AcDbLine
 10
45.7669795987141
 20
1307.264007095843
 30
0.0
 11
45.97221980475183
 21
1300.967351121611
 31
0.0
  0
LINE
  5
A870
330
1F
100
AcDbEntity
  8
0
 62
     0
 48
0.1
100
AcDbLine
 10
46.46697959871414
 20
1307.264007095843
 30
0.0
 11
46.67221980475187
 21
1300.967351121611
 31
0.0
  0
ARC
  5
A871
330
1F
100
AcDbEntity
  8
0
 62
     0
 48
0.1
100
AcDbCircle
 10
43.31679381950471
 20
1307.275409329512
 30
0.0
 40
0.3499999999999943
100
AcDbArc
 50
3.327208078953481
 51
181.8669013737792
  0
LINE
  5
A872
330
1F
100
AcDbEntity
  8
0
 62
     0
 48
0.1
100
AcDbLine
 10
42.96697959871415
 20
1307.264007095843
 30
0.0
 11
43.17221980475188
 21
1300.967351121611
 31
0.0
  0
LINE
  5
A873
330
1F
100
AcDbEntity
  8
0
 62
     0
 48
0.1
100
AcDbLine
 10
43.66697959871408
 20
1307.264007095843
 30
0.0
 11
43.87221980475181
 21
1300.967351121611
 31
0.0
  0
ARC
  5
A874
330
1F
100
AcDbEntity
  8
0
 62
     0
 48
0.1
100
AcDbCircle
 10
44.01679381950464
 20
1307.275409329512
 30
0.0
 40
0.3499999999999943
100
AcDbArc
 50
3.327208078953481
 51
181.8669013737792
  0
ARC
  5
A875
330
1F
100
AcDbEntity
  8
0
 62
     0
 48
0.1
100
AcDbCircle
 10
47.51679381950464
 20
1307.275409329512
 30
0.0
 40
0.3499999999999943
100
AcDbArc
 50
3.327208078953481
 51
181.8669013737792
  0
LINE
  5
A876
330
1F
100
AcDbEntity
  8
0
 62
     0
 48
0.1
100
AcDbLine
 10
47.16697959871408
 20
1307.264007095843
 30
0.0
 11
47.3722198047518
 21
1300.967351121611
 31
0.0
  0
ARC
  5
A877
330
1F
100
AcDbEntity
  8
0
 62
     0
 48
0.1
100
AcDbCircle
 10
60.11679381950466
 20
1307.275409329512
 30
0.0
 40
0.3499999999999943
100
AcDbArc
 50
3.327208078953481
 51
181.8669013737792
  0
ARC
  5
A878
330
1F
100
AcDbEntity
  8
0
 62
     0
 48
0.1
100
AcDbCircle
 10
59.41679381950473
 20
1307.275409329512
 30
0.0
 40
0.3499999999999943
100
AcDbArc
 50
3.327208078953481
 51
181.8669013737792
  0
ARC
  5
A879
330
1F
100
AcDbEntity
  8
0
 62
     0
 48
0.1
100
AcDbCircle
 10
60.81679381950471
 20
1307.275409329512
 30
0.0
 40
0.3499999999999943
100
AcDbArc
 50
3.327208078953481
 51
181.8669013737792
  0
LINE
  5
A87A
330
1F
100
AcDbEntity
  8
0
 62
     0
 48
0.1
100
AcDbLine
 10
59.06697959871405
 20
1307.264007095843
 30
0.0
 11
59.2722198047519
 21
1300.967351121611
 31
0.0
  0
LINE
  5
A87B
330
1F
100
AcDbEntity
  8
0
 62
     0
 48
0.1
100
AcDbLine
 10
59.7669795987141
 20
1307.264007095843
 30
0.0
 11
59.97221980475183
 21
1300.967351121611
 31
0.0
  0
LINE
  5
A87C
330
1F
100
AcDbEntity
  8
0
 62
     0
 48
0.1
100
AcDbLine
 10
60.46697959871415
 20
1307.264007095843
 30
0.0
 11
60.67221980475188
 21
1300.967351121611
 31
0.0
  0
ARC
  5
A87D
330
1F
100
AcDbEntity
  8
0
 62
     0
 48
0.1
100
AcDbCircle
 10
58.01679381950464
 20
1307.275409329512
 30
0.0
 40
0.3499999999999943
100
AcDbArc
 50
3.327208078953481
 51
181.8669013737792
  0
ARC
  5
A87E
330
1F
100
AcDbEntity
  8
0
 62
     0
 48
0.1
100
AcDbCircle
 10
56.61679381950467
 20
1307.275409329512
 30
0.0
 40
0.3499999999999943
100
AcDbArc
 50
3.327208078953481
 51
181.8669013737792
  0
ARC
  5
A87F
330
1F
100
AcDbEntity
  8
0
 62
     0
 48
0.1
100
AcDbCircle
 10
57.3167938195047
 20
1307.275409329512
 30
0.0
 40
0.3499999999999943
100
AcDbArc
 50
3.327208078953481
 51
181.8669013737792
  0
ARC
  5
A880
330
1F
100
AcDbEntity
  8
0
 62
     0
 48
0.1
100
AcDbCircle
 10
54.51679381950464
 20
1307.275409329512
 30
0.0
 40
0.3499999999999943
100
AcDbArc
 50
3.327208078953481
 51
181.8669013737792
  0
ARC
  5
A881
330
1F
100
AcDbEntity
  8
0
 62
     0
 48
0.1
100
AcDbCircle
 10
50.31679381950471
 20
1307.275409329512
 30
0.0
 40
0.3499999999999943
100
AcDbArc
 50
3.327208078953481
 51
181.8669013737792
  0
ARC
  5
A882
330
1F
100
AcDbEntity
  8
0
 62
     0
 48
0.1
100
AcDbCircle
 10
51.01679381950464
 20
1307.275409329512
 30
0.0
 40
0.3499999999999943
100
AcDbArc
 50
3.327208078953481
 51
181.8669013737792
  0
ARC
  5
A883
330
1F
100
AcDbEntity
  8
0
 62
     0
 48
0.1
100
AcDbCircle
 10
51.71679381950468
 20
1307.275409329512
 30
0.0
 40
0.3499999999999943
100
AcDbArc
 50
3.327208078953481
 51
181.8669013737792
  0
ARC
  5
A884
330
1F
100
AcDbEntity
  8
0
 62
     0
 48
0.1
100
AcDbCircle
 10
52.41679381950473
 20
1307.275409329512
 30
0.0
 40
0.3499999999999943
100
AcDbArc
 50
3.327208078953481
 51
181.8669013737792
  0
ARC
  5
A885
330
1F
100
AcDbEntity
  8
0
 62
     0
 48
0.1
100
AcDbCircle
 10
53.11679381950466
 20
1307.275409329512
 30
0.0
 40
0.3499999999999943
100
AcDbArc
 50
3.327208078953481
 51
181.8669013737792
  0
ARC
  5
A886
330
1F
100
AcDbEntity
  8
0
 62
     0
 48
0.1
100
AcDbCircle
 10
53.81679381950471
 20
1307.275409329512
 30
0.0
 40
0.3499999999999943
100
AcDbArc
 50
3.327208078953481
 51
181.8669013737792
  0
ARC
  5
A887
330
1F
100
AcDbEntity
  8
0
 62
     0
 48
0.1
100
AcDbCircle
 10
55.21679381950469
 20
1307.275409329512
 30
0.0
 40
0.3499999999999943
100
AcDbArc
 50
3.327208078953481
 51
181.8669013737792
  0
ARC
  5
A888
330
1F
100
AcDbEntity
  8
0
 62
     0
 48
0.1
100
AcDbCircle
 10
55.91679381950473
 20
1307.275409329512
 30
0.0
 40
0.3499999999999943
100
AcDbArc
 50
3.327208078953481
 51
181.8669013737792
  0
LINE
  5
A889
330
1F
100
AcDbEntity
  8
0
 62
     0
 48
0.1
100
AcDbLine
 10
49.96697959871415
 20
1307.264007095843
 30
0.0
 11
50.17221980475188
 21
1300.967351121611
 31
0.0
  0
LINE
  5
A88A
330
1F
100
AcDbEntity
  8
0
 62
     0
 48
0.1
100
AcDbLine
 10
50.66697959871408
 20
1307.264007095843
 30
0.0
 11
50.87221980475181
 21
1300.967351121611
 31
0.0
  0
LINE
  5
A88B
330
1F
100
AcDbEntity
  8
0
 62
     0
 48
0.1
100
AcDbLine
 10
51.36697959871412
 20
1307.264007095843
 30
0.0
 11
51.57221980475185
 21
1300.967351121611
 31
0.0
  0
LINE
  5
A88C
330
1F
100
AcDbEntity
  8
0
 62
     0
 48
0.1
100
AcDbLine
 10
52.06697959871405
 20
1307.264007095843
 30
0.0
 11
52.2722198047519
 21
1300.967351121611
 31
0.0
  0
LINE
  5
A88D
330
1F
100
AcDbEntity
  8
0
 62
     0
 48
0.1
100
AcDbLine
 10
52.7669795987141
 20
1307.264007095843
 30
0.0
 11
52.97221980475183
 21
1300.967351121611
 31
0.0
  0
LINE
  5
A88E
330
1F
100
AcDbEntity
  8
0
 62
     0
 48
0.1
100
AcDbLine
 10
53.46697959871415
 20
1307.264007095843
 30
0.0
 11
53.67221980475187
 21
1300.967351121611
 31
0.0
  0
LINE
  5
A88F
330
1F
100
AcDbEntity
  8
0
 62
     0
 48
0.1
100
AcDbLine
 10
54.16697959871408
 20
1307.264007095843
 30
0.0
 11
54.37221980475181
 21
1300.967351121611
 31
0.0
  0
LINE
  5
A890
330
1F
100
AcDbEntity
  8
0
 62
     0
 48
0.1
100
AcDbLine
 10
54.86697959871412
 20
1307.264007095843
 30
0.0
 11
55.07221980475185
 21
1300.967351121611
 31
0.0
  0
LINE
  5
A891
330
1F
100
AcDbEntity
  8
0
 62
     0
 48
0.1
100
AcDbLine
 10
55.56697959871406
 20
1307.264007095843
 30
0.0
 11
55.7722198047519
 21
1300.967351121611
 31
0.0
  0
LINE
  5
A892
330
1F
100
AcDbEntity
  8
0
 62
     0
 48
0.1
100
AcDbLine
 10
56.2669795987141
 20
1307.264007095843
 30
0.0
 11
56.47221980475183
 21
1300.967351121611
 31
0.0
  0
LINE
  5
A893
330
1F
100
AcDbEntity
  8
0
 62
     0
 48
0.1
100
AcDbLine
 10
56.96697959871414
 20
1307.264007095843
 30
0.0
 11
57.17221980475187
 21
1300.967351121611
 31
0.0
  0
LINE
  5
A894
330
1F
100
AcDbEntity
  8
0
 62
     0
 48
0.1
100
AcDbLine
 10
57.66697959871407
 20
1307.264007095843
 30
0.0
 11
57.8722198047518
 21
1300.967351121611
 31
0.0
  0
LINE
  5
A895
330
1F
100
AcDbEntity
  8
0
 62
     0
 48
0.1
100
AcDbLine
 10
58.36697959871412
 20
1307.264007095843
 30
0.0
 11
58.57221980475185
 21
1300.967351121611
 31
0.0
  0
ARC
  5
A896
330
1F
100
AcDbEntity
  8
0
 62
     0
 48
0.1
100
AcDbCircle
 10
58.71679381950468
 20
1307.275409329512
 30
0.0
 40
0.3499999999999943
100
AcDbArc
 50
3.327208078953481
 51
181.8669013737792
  0
LINE
  5
A897
330
1F
100
AcDbEntity
  8
0
 62
     0
 48
0.1
100
AcDbLine
 10
71.14944800329772
 20
1305.614898028629
 30
0.0
 11
77.14944800329772
 21
1305.614898028629
 31
0.0
  0
LINE
  5
A898
330
1F
100
AcDbEntity
  8
0
 62
     0
 48
0.1
100
AcDbLine
 10
69.97436284017283
 20
1305.614898028629
 30
0.0
 11
77.97436284017283
 21
1305.614898028629
 31
0.0
  0
LINE
  5
A899
330
1F
100
AcDbEntity
  8
0
 62
     0
 48
0.1
100
AcDbLine
 10
63.57501293464429
 20
1303.776901599956
 30
0.0
 11
77.56679381950471
 21
1303.776901599956
 31
0.0
  0
LINE
  5
A89A
330
1F
100
AcDbEntity
  8
0
 62
     0
 48
0.1
100
AcDbLine
 10
77.56683214366432
 20
1304.476901599956
 30
0.0
 11
64.51939123223553
 21
1304.476901599956
 31
0.0
  0
LINE
  5
A89B
330
1F
100
AcDbEntity
  8
0
 62
     0
 48
0.1
100
AcDbLine
 10
70.90496647001112
 20
1304.476901599956
 30
0.0
 11
83.95240738143991
 21
1304.476901599956
 31
0.0
  0
ARC
  5
A89C
330
1F
100
AcDbEntity
  8
0
 62
     0
 48
0.3
100
AcDbCircle
 10
73.97436284017283
 20
1306.614898028628
 30
0.0
 40
4.0
100
AcDbArc
 50
0.0
 51
180.0
  0
LINE
  5
A89D
330
1F
100
AcDbEntity
  8
0
 62
     0
 48
0.3
100
AcDbLine
 10
69.97436284017283
 20
1303.114898028629
 30
0.0
 11
77.97436284017283
 21
1303.114898028629
 31
0.0
  0
LINE
  5
A89E
330
1F
100
AcDbEntity
  8
0
 62
     0
 48
0.3
100
AcDbLine
 10
76.97436284017283
 20
1303.114898028629
 30
0.0
 11
70.97436284017283
 21
1303.114898028629
 31
0.0
  0
LINE
  5
A89F
330
1F
100
AcDbEntity
  8
0
 62
     0
 48
0.3
100
AcDbLine
 10
77.44944800329768
 20
1303.114898028629
 30
0.0
 11
69.94944800329768
 21
1303.114898028629
 31
0.0
  0
LINE
  5
A8A0
330
1F
100
AcDbEntity
  8
0
 62
     0
 48
0.1
100
AcDbLine
 10
71.14944800329772
 20
1303.776901599956
 30
0.0
 11
71.14944800329772
 21
1303.114898028629
 31
0.0
  0
LINE
  5
A8A1
330
1F
100
AcDbEntity
  8
0
 62
     0
 48
0.1
100
AcDbLine
 10
71.14944800329772
 20
1305.614898028629
 30
0.0
 11
71.14944800329772
 21
1305.176901599956
 31
0.0
  0
ARC
  5
A8A2
330
1F
100
AcDbEntity
  8
0
 62
     0
 48
0.1
100
AcDbCircle
 10
62.21679381950469
 20
1307.275409329512
 30
0.0
 40
0.3499999999999943
100
AcDbArc
 50
3.327208078953481
 51
181.8669013737792
  0
ARC
  5
A8A3
330
1F
100
AcDbEntity
  8
0
 62
     0
 48
0.1
100
AcDbCircle
 10
62.91679381950473
 20
1307.275409329512
 30
0.0
 40
0.3499999999999943
100
AcDbArc
 50
3.327208078953481
 51
181.8669013737792
  0
ARC
  5
A8A4
330
1F
100
AcDbEntity
  8
0
 62
     0
 48
0.1
100
AcDbCircle
 10
63.61308501362009
 20
1303.496594327519
 30
0.0
 40
0.2828809823553445
100
AcDbArc
 50
97.73473392155727
 51
141.9282648455182
  0
LINE
  5
A8A5
330
1F
100
AcDbEntity
  8
0
 62
     0
 48
0.1
100
AcDbLine
 10
64.51939123223553
 20
1304.476901599956
 30
0.0
 11
63.57501293464429
 21
1304.476901599956
 31
0.0
  0
ARC
  5
A8A6
330
1F
100
AcDbEntity
  8
0
 62
     0
 48
0.1
100
AcDbCircle
 10
63.61308501362009
 20
1304.196594327519
 30
0.0
 40
0.2828809823553445
100
AcDbArc
 50
97.73473392155727
 51
152.1511265370377
  0
LINE
  5
A8A7
330
1F
100
AcDbEntity
  8
0
 62
     0
 48
0.1
100
AcDbLine
 10
61.95782561421276
 20
1304.476901599956
 30
0.0
 11
61.95782561421276
 21
1303.776901599956
 31
0.0
  0
LINE
  5
A8A8
330
1F
100
AcDbEntity
  8
0
 62
     0
 48
0.1
100
AcDbLine
 10
61.86697959871413
 20
1307.264007095843
 30
0.0
 11
62.07221980475186
 21
1300.967351121611
 31
0.0
  0
LINE
  5
A8A9
330
1F
100
AcDbEntity
  8
0
 62
     0
 48
0.1
100
AcDbLine
 10
62.56697959871406
 20
1307.264007095843
 30
0.0
 11
62.77221980475189
 21
1300.967351121611
 31
0.0
  0
LINE
  5
A8AA
330
1F
100
AcDbEntity
  8
0
 62
     0
 48
0.1
100
AcDbLine
 10
63.26620384851094
 20
1307.295722665768
 30
0.0
 11
63.47184824633302
 21
1300.990155588949
 31
0.0
  0
ARC
  5
A8AB
330
1F
100
AcDbEntity
  8
0
 62
     0
 48
0.1
100
AcDbCircle
 10
70.90500479417073
 20
1304.826901599956
 30
0.0
 40
0.3499999999999943
100
AcDbArc
 50
90.0
 51
270.0
  0
LINE
  5
A8AC
330
1F
100
AcDbEntity
  8
0
 62
     0
 48
0.3
100
AcDbLine
 10
69.97436284017283
 20
1305.614898028629
 30
0.0
 11
69.97436284017283
 21
1306.645143559575
 31
0.0
  0
LINE
  5
A8AD
330
1F
100
AcDbEntity
  8
0
 62
     0
 48
0.1
100
AcDbLine
 10
77.14944800329772
 20
1303.776901599956
 30
0.0
 11
77.14944800329772
 21
1303.114898028629
 31
0.0
  0
LINE
  5
A8AE
330
1F
100
AcDbEntity
  8
0
 62
     0
 48
0.1
100
AcDbLine
 10
77.14944800329772
 20
1305.614898028629
 30
0.0
 11
77.14944800329772
 21
1305.176901599956
 31
0.0
  0
ARC
  5
A8AF
330
1F
100
AcDbEntity
  8
0
 62
     0
 48
0.1
100
AcDbCircle
 10
77.56679381950471
 20
1304.126901599956
 30
0.0
 40
0.3499999999999943
100
AcDbArc
 50
270.0
 51
90.0
  0
LINE
  5
A8B0
330
1F
100
AcDbEntity
  8
0
 62
     0
 48
0.3
100
AcDbLine
 10
77.97436284017283
 20
1305.614898028629
 30
0.0
 11
77.97436284017283
 21
1306.614898028628
 31
0.0
  0
LINE
  5
A8B1
330
1F
100
AcDbEntity
  8
0
 62
     0
 48
0.3
100
AcDbLine
 10
77.97436284017283
 20
1305.614898028629
 30
0.0
 11
77.97436284017283
 21
1306.614898028628
 31
0.0
  0
LINE
  5
A8B2
330
1F
100
AcDbEntity
  8
0
 62
     0
 48
0.3
100
AcDbLine
 10
73.97436284017283
 20
1303.114898028629
 30
0.0
 11
76.97436284017283
 21
1303.114898028629
 31
0.0
  0
LINE
  5
A8B3
330
1F
100
AcDbEntity
  8
0
 62
     0
 48
0.1
100
AcDbLine
 10
179.313762543065
 20
1304.326901599956
 30
0.0
 11
116.5048207025363
 21
1304.326901599956
 31
0.0
  0
LINE
  5
A8B4
330
1F
100
AcDbEntity
  8
0
 62
     0
 48
0.1
100
AcDbLine
 10
116.5048207025363
 20
1305.126901599956
 30
0.0
 11
179.313762543065
 21
1305.126901599956
 31
0.0
  0
LINE
  5
A8B5
330
1F
100
AcDbEntity
  8
0
 62
     0
 48
0.1
100
AcDbLine
 10
105.5048207025363
 20
1308.826901599956
 30
0.0
 11
113.4048207025363
 21
1308.826901599956
 31
0.0
  0
LINE
  5
A8B6
330
1F
100
AcDbEntity
  8
0
 62
     0
 48
0.1
100
AcDbLine
 10
113.4048207025363
 20
1300.826901599956
 30
0.0
 11
105.5048207025363
 21
1300.826901599956
 31
0.0
  0
ARC
  5
A8B7
330
1F
100
AcDbEntity
  8
0
 62
     0
 48
0.1
100
AcDbCircle
 10
95.84976458813299
 20
1307.975049844632
 30
0.0
 40
0.3499999999999943
100
AcDbArc
 50
1.866901373779202
 51
181.8669013737792
  0
ARC
  5
A8B8
330
1F
100
AcDbEntity
  8
0
 62
     0
 48
0.1
100
AcDbCircle
 10
96.05500479417083
 20
1301.6783938704
 30
0.0
 40
0.3499999999999943
100
AcDbArc
 50
183.3272080789534
 51
1.866901373779202
  0
LINE
  5
A8B9
330
1F
100
AcDbEntity
  8
0
 62
     0
 48
0.1
100
AcDbLine
 10
95.00481901496129
 20
1301.689796104069
 30
0.0
 11
94.79957880892357
 21
1307.9864520783
 31
0.0
  0
ARC
  5
A8BA
330
1F
100
AcDbEntity
  8
0
 62
     0
 48
0.1
100
AcDbCircle
 10
95.14976458813293
 20
1307.975049844632
 30
0.0
 40
0.3499999999999943
100
AcDbArc
 50
1.866901373779202
 51
181.8669013737792
  0
ARC
  5
A8BB
330
1F
100
AcDbEntity
  8
0
 62
     0
 48
0.1
100
AcDbCircle
 10
94.65500479417073
 20
1301.6783938704
 30
0.0
 40
0.3499999999999943
100
AcDbArc
 50
183.3272080789534
 51
1.866901373779202
  0
LINE
  5
A8BC
330
1F
100
AcDbEntity
  8
0
 62
     0
 48
0.1
100
AcDbLine
 10
92.90481901496139
 20
1301.689796104069
 30
0.0
 11
92.69957880892366
 21
1307.9864520783
 31
0.0
  0
LINE
  5
A8BD
330
1F
100
AcDbEntity
  8
0
 62
     0
 48
0.1
100
AcDbLine
 10
93.60481901496132
 20
1301.689796104069
 30
0.0
 11
93.3995788089236
 21
1307.9864520783
 31
0.0
  0
LINE
  5
A8BE
330
1F
100
AcDbEntity
  8
0
 62
     0
 48
0.1
100
AcDbLine
 10
94.30481901496136
 20
1301.689796104069
 30
0.0
 11
94.09957880892363
 21
1307.9864520783
 31
0.0
  0
ARC
  5
A8BF
330
1F
100
AcDbEntity
  8
0
 62
     0
 48
0.1
100
AcDbCircle
 10
93.04976458813303
 20
1307.975049844632
 30
0.0
 40
0.3499999999999943
100
AcDbArc
 50
1.866901373779202
 51
181.8669013737792
  0
ARC
  5
A8C0
330
1F
100
AcDbEntity
  8
0
 62
     0
 48
0.1
100
AcDbCircle
 10
94.449764588133
 20
1307.975049844632
 30
0.0
 40
0.3499999999999943
100
AcDbArc
 50
1.866901373779202
 51
181.8669013737792
  0
ARC
  5
A8C1
330
1F
100
AcDbEntity
  8
0
 62
     0
 48
0.1
100
AcDbCircle
 10
93.74976458813307
 20
1307.975049844632
 30
0.0
 40
0.3499999999999943
100
AcDbArc
 50
1.866901373779202
 51
181.8669013737792
  0
ARC
  5
A8C2
330
1F
100
AcDbEntity
  8
0
 62
     0
 48
0.1
100
AcDbCircle
 10
93.25500479417076
 20
1301.6783938704
 30
0.0
 40
0.3499999999999943
100
AcDbArc
 50
183.3272080789534
 51
1.866901373779202
  0
ARC
  5
A8C3
330
1F
100
AcDbEntity
  8
0
 62
     0
 48
0.1
100
AcDbCircle
 10
93.9550047941708
 20
1301.6783938704
 30
0.0
 40
0.3499999999999943
100
AcDbArc
 50
183.3272080789534
 51
1.866901373779202
  0
LINE
  5
A8C4
330
1F
100
AcDbEntity
  8
0
 62
     0
 48
0.1
100
AcDbLine
 10
95.70481901496135
 20
1301.689796104069
 30
0.0
 11
95.49957880892362
 21
1307.9864520783
 31
0.0
  0
ARC
  5
A8C5
330
1F
100
AcDbEntity
  8
0
 62
     0
 48
0.1
100
AcDbCircle
 10
95.35500479417079
 20
1301.6783938704
 30
0.0
 40
0.3499999999999943
100
AcDbArc
 50
183.3272080789534
 51
1.866901373779202
  0
LINE
  5
A8C6
330
1F
100
AcDbEntity
  8
0
 62
     0
 48
0.1
100
AcDbLine
 10
85.20559476516451
 20
1301.658080534144
 30
0.0
 11
84.99995036734231
 21
1307.963647610963
 31
0.0
  0
LINE
  5
A8C7
330
1F
100
AcDbEntity
  8
0
 62
     0
 48
0.1
100
AcDbLine
 10
85.90481901496138
 20
1301.689796104069
 30
0.0
 11
85.69957880892365
 21
1307.9864520783
 31
0.0
  0
LINE
  5
A8C8
330
1F
100
AcDbEntity
  8
0
 62
     0
 48
0.1
100
AcDbLine
 10
86.60481901496131
 20
1301.689796104069
 30
0.0
 11
86.39957880892358
 21
1307.9864520783
 31
0.0
  0
LINE
  5
A8C9
330
1F
100
AcDbEntity
  8
0
 62
     0
 48
0.1
100
AcDbLine
 10
87.30481901496137
 20
1301.689796104069
 30
0.0
 11
87.09957880892364
 21
1307.9864520783
 31
0.0
  0
LINE
  5
A8CA
330
1F
100
AcDbEntity
  8
0
 62
     0
 48
0.1
100
AcDbLine
 10
88.0048190149613
 20
1301.689796104069
 30
0.0
 11
87.79957880892357
 21
1307.9864520783
 31
0.0
  0
LINE
  5
A8CB
330
1F
100
AcDbEntity
  8
0
 62
     0
 48
0.1
100
AcDbLine
 10
88.70481901496134
 20
1301.689796104069
 30
0.0
 11
88.49957880892361
 21
1307.9864520783
 31
0.0
  0
LINE
  5
A8CC
330
1F
100
AcDbEntity
  8
0
 62
     0
 48
0.1
100
AcDbLine
 10
89.4048190149614
 20
1301.689796104069
 30
0.0
 11
89.19957880892367
 21
1307.9864520783
 31
0.0
  0
LINE
  5
A8CD
330
1F
100
AcDbEntity
  8
0
 62
     0
 48
0.1
100
AcDbLine
 10
90.10481901496133
 20
1301.689796104069
 30
0.0
 11
89.8995788089236
 21
1307.9864520783
 31
0.0
  0
LINE
  5
A8CE
330
1F
100
AcDbEntity
  8
0
 62
     0
 48
0.1
100
AcDbLine
 10
90.80481901496137
 20
1301.689796104069
 30
0.0
 11
90.59957880892364
 21
1307.9864520783
 31
0.0
  0
LINE
  5
A8CF
330
1F
100
AcDbEntity
  8
0
 62
     0
 48
0.1
100
AcDbLine
 10
91.5048190149613
 20
1301.689796104069
 30
0.0
 11
91.29957880892357
 21
1307.9864520783
 31
0.0
  0
LINE
  5
A8D0
330
1F
100
AcDbEntity
  8
0
 62
     0
 48
0.1
100
AcDbLine
 10
92.20481901496134
 20
1301.689796104069
 30
0.0
 11
91.99957880892361
 21
1307.9864520783
 31
0.0
  0
LINE
  5
A8D1
330
1F
100
AcDbEntity
  8
0
 62
     0
 48
0.1
100
AcDbLine
 10
86.51397299946268
 20
1304.476901599956
 30
0.0
 11
86.51397299946268
 21
1305.176901599956
 31
0.0
  0
ARC
  5
A8D2
330
1F
100
AcDbEntity
  8
0
 62
     0
 48
0.1
100
AcDbCircle
 10
85.34976458813298
 20
1307.975049844632
 30
0.0
 40
0.3499999999999943
100
AcDbArc
 50
1.866901373779202
 51
181.8669013737792
  0
ARC
  5
A8D3
330
1F
100
AcDbEntity
  8
0
 62
     0
 48
0.1
100
AcDbCircle
 10
86.04976458813302
 20
1307.975049844632
 30
0.0
 40
0.3499999999999943
100
AcDbArc
 50
1.866901373779202
 51
181.8669013737792
  0
ARC
  5
A8D4
330
1F
100
AcDbEntity
  8
0
 62
     0
 48
0.1
100
AcDbCircle
 10
86.74976458813308
 20
1307.975049844632
 30
0.0
 40
0.3499999999999943
100
AcDbArc
 50
1.866901373779202
 51
181.8669013737792
  0
ARC
  5
A8D5
330
1F
100
AcDbEntity
  8
0
 62
     0
 48
0.1
100
AcDbCircle
 10
87.44976458813301
 20
1307.975049844632
 30
0.0
 40
0.3499999999999943
100
AcDbArc
 50
1.866901373779202
 51
181.8669013737792
  0
ARC
  5
A8D6
330
1F
100
AcDbEntity
  8
0
 62
     0
 48
0.1
100
AcDbCircle
 10
88.84976458813298
 20
1307.975049844632
 30
0.0
 40
0.3499999999999943
100
AcDbArc
 50
1.866901373779202
 51
181.8669013737792
  0
ARC
  5
A8D7
330
1F
100
AcDbEntity
  8
0
 62
     0
 48
0.1
100
AcDbCircle
 10
89.54976458813304
 20
1307.975049844632
 30
0.0
 40
0.3499999999999943
100
AcDbArc
 50
1.866901373779202
 51
181.8669013737792
  0
ARC
  5
A8D8
330
1F
100
AcDbEntity
  8
0
 62
     0
 48
0.1
100
AcDbCircle
 10
90.24976458813307
 20
1307.975049844632
 30
0.0
 40
0.3499999999999943
100
AcDbArc
 50
1.866901373779202
 51
181.8669013737792
  0
ARC
  5
A8D9
330
1F
100
AcDbEntity
  8
0
 62
     0
 48
0.1
100
AcDbCircle
 10
90.94976458813301
 20
1307.975049844632
 30
0.0
 40
0.3499999999999943
100
AcDbArc
 50
1.866901373779202
 51
181.8669013737792
  0
ARC
  5
A8DA
330
1F
100
AcDbEntity
  8
0
 62
     0
 48
0.1
100
AcDbCircle
 10
91.64976458813294
 20
1307.975049844632
 30
0.0
 40
0.3499999999999943
100
AcDbArc
 50
1.866901373779202
 51
181.8669013737792
  0
ARC
  5
A8DB
330
1F
100
AcDbEntity
  8
0
 62
     0
 48
0.1
100
AcDbCircle
 10
88.14976458813305
 20
1307.975049844632
 30
0.0
 40
0.3499999999999943
100
AcDbArc
 50
1.866901373779202
 51
181.8669013737792
  0
ARC
  5
A8DC
330
1F
100
AcDbEntity
  8
0
 62
     0
 48
0.1
100
AcDbCircle
 10
85.55500479417082
 20
1301.6783938704
 30
0.0
 40
0.3499999999999943
100
AcDbArc
 50
183.3272080789534
 51
1.866901373779202
  0
ARC
  5
A8DD
330
1F
100
AcDbEntity
  8
0
 62
     0
 48
0.1
100
AcDbCircle
 10
86.25500479417075
 20
1301.6783938704
 30
0.0
 40
0.3499999999999943
100
AcDbArc
 50
183.3272080789534
 51
1.866901373779202
  0
ARC
  5
A8DE
330
1F
100
AcDbEntity
  8
0
 62
     0
 48
0.1
100
AcDbCircle
 10
86.95500479417081
 20
1301.6783938704
 30
0.0
 40
0.3499999999999943
100
AcDbArc
 50
183.3272080789534
 51
1.866901373779202
  0
ARC
  5
A8DF
330
1F
100
AcDbEntity
  8
0
 62
     0
 48
0.1
100
AcDbCircle
 10
87.65500479417074
 20
1301.6783938704
 30
0.0
 40
0.3499999999999943
100
AcDbArc
 50
183.3272080789534
 51
1.866901373779202
  0
ARC
  5
A8E0
330
1F
100
AcDbEntity
  8
0
 62
     0
 48
0.1
100
AcDbCircle
 10
89.05500479417083
 20
1301.6783938704
 30
0.0
 40
0.3499999999999943
100
AcDbArc
 50
183.3272080789534
 51
1.866901373779202
  0
ARC
  5
A8E1
330
1F
100
AcDbEntity
  8
0
 62
     0
 48
0.1
100
AcDbCircle
 10
89.75500479417076
 20
1301.6783938704
 30
0.0
 40
0.3499999999999943
100
AcDbArc
 50
183.3272080789534
 51
1.866901373779202
  0
ARC
  5
A8E2
330
1F
100
AcDbEntity
  8
0
 62
     0
 48
0.1
100
AcDbCircle
 10
90.4550047941708
 20
1301.6783938704
 30
0.0
 40
0.3499999999999943
100
AcDbArc
 50
183.3272080789534
 51
1.866901373779202
  0
ARC
  5
A8E3
330
1F
100
AcDbEntity
  8
0
 62
     0
 48
0.1
100
AcDbCircle
 10
91.15500479417073
 20
1301.6783938704
 30
0.0
 40
0.3499999999999943
100
AcDbArc
 50
183.3272080789534
 51
1.866901373779202
  0
ARC
  5
A8E4
330
1F
100
AcDbEntity
  8
0
 62
     0
 48
0.1
100
AcDbCircle
 10
91.85500479417077
 20
1301.6783938704
 30
0.0
 40
0.3499999999999943
100
AcDbArc
 50
183.3272080789534
 51
1.866901373779202
  0
ARC
  5
A8E5
330
1F
100
AcDbEntity
  8
0
 62
     0
 48
0.1
100
AcDbCircle
 10
88.35500479417078
 20
1301.6783938704
 30
0.0
 40
0.3499999999999943
100
AcDbArc
 50
183.3272080789534
 51
1.866901373779202
  0
ARC
  5
A8E6
330
1F
100
AcDbEntity
  8
0
 62
     0
 48
0.1
100
AcDbCircle
 10
84.85871360005535
 20
1304.757208872392
 30
0.0
 40
0.2828809823553445
100
AcDbArc
 50
277.7347339215572
 51
332.1511265370377
  0
ARC
  5
A8E7
330
1F
100
AcDbEntity
  8
0
 62
     0
 48
0.1
100
AcDbCircle
 10
84.85871360005535
 20
1305.457208872392
 30
0.0
 40
0.2828809823553445
100
AcDbArc
 50
277.7347339215572
 51
321.9282648455182
  0
ARC
  5
A8E8
330
1F
100
AcDbEntity
  8
0
 62
     0
 48
0.1
100
AcDbCircle
 10
92.34976458813298
 20
1307.975049844632
 30
0.0
 40
0.3499999999999943
100
AcDbArc
 50
1.866901373779202
 51
181.8669013737792
  0
ARC
  5
A8E9
330
1F
100
AcDbEntity
  8
0
 62
     0
 48
0.1
100
AcDbCircle
 10
92.55500479417083
 20
1301.6783938704
 30
0.0
 40
0.3499999999999943
100
AcDbArc
 50
183.3272080789534
 51
1.866901373779202
  0
ARC
  5
A8EA
330
1F
100
AcDbEntity
  8
0
 62
     0
 48
0.1
100
AcDbCircle
 10
104.4550047941708
 20
1301.6783938704
 30
0.0
 40
0.3499999999999943
100
AcDbArc
 50
183.3272080789534
 51
1.866901373779202
  0
LINE
  5
A8EB
330
1F
100
AcDbEntity
  8
0
 62
     0
 48
0.1
100
AcDbLine
 10
104.8048190149613
 20
1301.689796104069
 30
0.0
 11
104.5995788089236
 21
1307.9864520783
 31
0.0
  0
LINE
  5
A8EC
330
1F
100
AcDbEntity
  8
0
 62
     0
 48
0.1
100
AcDbLine
 10
105.5048190149612
 20
1301.689796104069
 30
0.0
 11
105.2995788089235
 21
1307.9864520783
 31
0.0
  0
LINE
  5
A8ED
330
1F
100
AcDbEntity
  8
0
 62
     0
 48
0.1
100
AcDbLine
 10
105.5048207025363
 20
1300.826901599956
 30
0.0
 11
105.5048207025363
 21
1308.826901599956
 31
0.0
  0
ARC
  5
A8EE
330
1F
100
AcDbEntity
  8
0
 62
     0
 48
0.1
100
AcDbCircle
 10
104.949764588133
 20
1307.975049844632
 30
0.0
 40
0.3499999999999943
100
AcDbArc
 50
1.866901373779202
 51
181.8669013737792
  0
ARC
  5
A8EF
330
1F
100
AcDbEntity
  8
0
 62
     0
 48
0.1
100
AcDbCircle
 10
105.1550047941707
 20
1301.6783938704
 30
0.0
 40
0.3499999999999943
100
AcDbArc
 50
183.3272080789534
 51
1.866901373779202
  0
LINE
  5
A8F0
330
1F
100
AcDbEntity
  8
0
 62
     0
 48
0.1
100
AcDbLine
 10
104.1048190149613
 20
1301.689796104069
 30
0.0
 11
103.8995788089235
 21
1307.9864520783
 31
0.0
  0
LINE
  5
A8F1
330
1F
100
AcDbEntity
  8
0
 62
     0
 48
0.1
100
AcDbLine
 10
97.10481901496132
 20
1301.689796104069
 30
0.0
 11
96.89957880892359
 21
1307.9864520783
 31
0.0
  0
LINE
  5
A8F2
330
1F
100
AcDbEntity
  8
0
 62
     0
 48
0.1
100
AcDbLine
 10
97.80481901496138
 20
1301.689796104069
 30
0.0
 11
97.59957880892365
 21
1307.9864520783
 31
0.0
  0
LINE
  5
A8F3
330
1F
100
AcDbEntity
  8
0
 62
     0
 48
0.1
100
AcDbLine
 10
98.50481901496131
 20
1301.689796104069
 30
0.0
 11
98.29957880892358
 21
1307.9864520783
 31
0.0
  0
LINE
  5
A8F4
330
1F
100
AcDbEntity
  8
0
 62
     0
 48
0.1
100
AcDbLine
 10
99.20481901496135
 20
1301.689796104069
 30
0.0
 11
98.99957880892362
 21
1307.9864520783
 31
0.0
  0
LINE
  5
A8F5
330
1F
100
AcDbEntity
  8
0
 62
     0
 48
0.1
100
AcDbLine
 10
100.6048190149613
 20
1301.689796104069
 30
0.0
 11
100.3995788089235
 21
1307.9864520783
 31
0.0
  0
LINE
  5
A8F6
330
1F
100
AcDbEntity
  8
0
 62
     0
 48
0.1
100
AcDbLine
 10
101.3048190149613
 20
1301.689796104069
 30
0.0
 11
101.0995788089236
 21
1307.9864520783
 31
0.0
  0
LINE
  5
A8F7
330
1F
100
AcDbEntity
  8
0
 62
     0
 48
0.1
100
AcDbLine
 10
102.0048190149613
 20
1301.689796104069
 30
0.0
 11
101.7995788089235
 21
1307.9864520783
 31
0.0
  0
LINE
  5
A8F8
330
1F
100
AcDbEntity
  8
0
 62
     0
 48
0.1
100
AcDbLine
 10
102.7048190149613
 20
1301.689796104069
 30
0.0
 11
102.4995788089236
 21
1307.9864520783
 31
0.0
  0
LINE
  5
A8F9
330
1F
100
AcDbEntity
  8
0
 62
     0
 48
0.1
100
AcDbLine
 10
103.4048190149613
 20
1301.689796104069
 30
0.0
 11
103.1995788089236
 21
1307.9864520783
 31
0.0
  0
LINE
  5
A8FA
330
1F
100
AcDbEntity
  8
0
 62
     0
 48
0.1
100
AcDbLine
 10
99.90481901496139
 20
1301.689796104069
 30
0.0
 11
99.69957880892366
 21
1307.9864520783
 31
0.0
  0
ARC
  5
A8FB
330
1F
100
AcDbEntity
  8
0
 62
     0
 48
0.1
100
AcDbCircle
 10
97.24976458813308
 20
1307.975049844632
 30
0.0
 40
0.3499999999999943
100
AcDbArc
 50
1.866901373779202
 51
181.8669013737792
  0
ARC
  5
A8FC
330
1F
100
AcDbEntity
  8
0
 62
     0
 48
0.1
100
AcDbCircle
 10
97.94976458813302
 20
1307.975049844632
 30
0.0
 40
0.3499999999999943
100
AcDbArc
 50
1.866901373779202
 51
181.8669013737792
  0
ARC
  5
A8FD
330
1F
100
AcDbEntity
  8
0
 62
     0
 48
0.1
100
AcDbCircle
 10
98.64976458813295
 20
1307.975049844632
 30
0.0
 40
0.3499999999999943
100
AcDbArc
 50
1.866901373779202
 51
181.8669013737792
  0
ARC
  5
A8FE
330
1F
100
AcDbEntity
  8
0
 62
     0
 48
0.1
100
AcDbCircle
 10
99.34976458813299
 20
1307.975049844632
 30
0.0
 40
0.3499999999999943
100
AcDbArc
 50
1.866901373779202
 51
181.8669013737792
  0
ARC
  5
A8FF
330
1F
100
AcDbEntity
  8
0
 62
     0
 48
0.1
100
AcDbCircle
 10
100.749764588133
 20
1307.975049844632
 30
0.0
 40
0.3499999999999943
100
AcDbArc
 50
1.866901373779202
 51
181.8669013737792
  0
ARC
  5
A900
330
1F
100
AcDbEntity
  8
0
 62
     0
 48
0.1
100
AcDbCircle
 10
101.449764588133
 20
1307.975049844632
 30
0.0
 40
0.3499999999999943
100
AcDbArc
 50
1.866901373779202
 51
181.8669013737792
  0
ARC
  5
A901
330
1F
100
AcDbEntity
  8
0
 62
     0
 48
0.1
100
AcDbCircle
 10
102.1497645881329
 20
1307.975049844632
 30
0.0
 40
0.3499999999999943
100
AcDbArc
 50
1.866901373779202
 51
181.8669013737792
  0
ARC
  5
A902
330
1F
100
AcDbEntity
  8
0
 62
     0
 48
0.1
100
AcDbCircle
 10
102.8497645881329
 20
1307.975049844632
 30
0.0
 40
0.3499999999999943
100
AcDbArc
 50
1.866901373779202
 51
181.8669013737792
  0
ARC
  5
A903
330
1F
100
AcDbEntity
  8
0
 62
     0
 48
0.1
100
AcDbCircle
 10
100.049764588133
 20
1307.975049844632
 30
0.0
 40
0.3499999999999943
100
AcDbArc
 50
1.866901373779202
 51
181.8669013737792
  0
ARC
  5
A904
330
1F
100
AcDbEntity
  8
0
 62
     0
 48
0.1
100
AcDbCircle
 10
97.45500479417081
 20
1301.6783938704
 30
0.0
 40
0.3499999999999943
100
AcDbArc
 50
183.3272080789534
 51
1.866901373779202
  0
ARC
  5
A905
330
1F
100
AcDbEntity
  8
0
 62
     0
 48
0.1
100
AcDbCircle
 10
98.15500479417075
 20
1301.6783938704
 30
0.0
 40
0.3499999999999943
100
AcDbArc
 50
183.3272080789534
 51
1.866901373779202
  0
ARC
  5
A906
330
1F
100
AcDbEntity
  8
0
 62
     0
 48
0.1
100
AcDbCircle
 10
98.85500479417078
 20
1301.6783938704
 30
0.0
 40
0.3499999999999943
100
AcDbArc
 50
183.3272080789534
 51
1.866901373779202
  0
ARC
  5
A907
330
1F
100
AcDbEntity
  8
0
 62
     0
 48
0.1
100
AcDbCircle
 10
100.2550047941707
 20
1301.6783938704
 30
0.0
 40
0.3499999999999943
100
AcDbArc
 50
183.3272080789534
 51
1.866901373779202
  0
ARC
  5
A908
330
1F
100
AcDbEntity
  8
0
 62
     0
 48
0.1
100
AcDbCircle
 10
100.9550047941708
 20
1301.6783938704
 30
0.0
 40
0.3499999999999943
100
AcDbArc
 50
183.3272080789534
 51
1.866901373779202
  0
ARC
  5
A909
330
1F
100
AcDbEntity
  8
0
 62
     0
 48
0.1
100
AcDbCircle
 10
101.6550047941707
 20
1301.6783938704
 30
0.0
 40
0.3499999999999943
100
AcDbArc
 50
183.3272080789534
 51
1.866901373779202
  0
ARC
  5
A90A
330
1F
100
AcDbEntity
  8
0
 62
     0
 48
0.1
100
AcDbCircle
 10
102.3550047941707
 20
1301.6783938704
 30
0.0
 40
0.3499999999999943
100
AcDbArc
 50
183.3272080789534
 51
1.866901373779202
  0
ARC
  5
A90B
330
1F
100
AcDbEntity
  8
0
 62
     0
 48
0.1
100
AcDbCircle
 10
103.0550047941708
 20
1301.6783938704
 30
0.0
 40
0.3499999999999943
100
AcDbArc
 50
183.3272080789534
 51
1.866901373779202
  0
ARC
  5
A90C
330
1F
100
AcDbEntity
  8
0
 62
     0
 48
0.1
100
AcDbCircle
 10
99.55500479417082
 20
1301.6783938704
 30
0.0
 40
0.3499999999999943
100
AcDbArc
 50
183.3272080789534
 51
1.866901373779202
  0
LINE
  5
A90D
330
1F
100
AcDbEntity
  8
0
 62
     0
 48
0.1
100
AcDbLine
 10
96.40481901496139
 20
1301.689796104069
 30
0.0
 11
96.19957880892366
 21
1307.9864520783
 31
0.0
  0
ARC
  5
A90E
330
1F
100
AcDbEntity
  8
0
 62
     0
 48
0.1
100
AcDbCircle
 10
96.54976458813303
 20
1307.975049844632
 30
0.0
 40
0.3499999999999943
100
AcDbArc
 50
1.866901373779202
 51
181.8669013737792
  0
ARC
  5
A90F
330
1F
100
AcDbEntity
  8
0
 62
     0
 48
0.1
100
AcDbCircle
 10
96.75500479417076
 20
1301.6783938704
 30
0.0
 40
0.3499999999999943
100
AcDbArc
 50
183.3272080789534
 51
1.866901373779202
  0
ARC
  5
A910
330
1F
100
AcDbEntity
  8
0
 62
     0
 48
0.1
100
AcDbCircle
 10
104.249764588133
 20
1307.975049844632
 30
0.0
 40
0.3499999999999943
100
AcDbArc
 50
1.866901373779202
 51
181.8669013737792
  0
ARC
  5
A911
330
1F
100
AcDbEntity
  8
0
 62
     0
 48
0.1
100
AcDbCircle
 10
103.549764588133
 20
1307.975049844632
 30
0.0
 40
0.3499999999999943
100
AcDbArc
 50
1.866901373779202
 51
181.8669013737792
  0
ARC
  5
A912
330
1F
100
AcDbEntity
  8
0
 62
     0
 48
0.1
100
AcDbCircle
 10
103.7550047941707
 20
1301.6783938704
 30
0.0
 40
0.3499999999999943
100
AcDbArc
 50
183.3272080789534
 51
1.866901373779202
  0
LINE
  5
A913
330
1F
100
AcDbEntity
  8
0
 62
     0
 48
0.1
100
AcDbLine
 10
116.5048207025363
 20
1303.826901599956
 30
0.0
 11
116.5048207025363
 21
1305.626901599956
 31
0.0
  0
LINE
  5
A914
330
1F
100
AcDbEntity
  8
0
 62
     0
 48
0.1
100
AcDbLine
 10
116.3048207025362
 20
1303.626901599956
 30
0.0
 11
116.5048207025363
 21
1303.826901599956
 31
0.0
  0
LINE
  5
A915
330
1F
100
AcDbEntity
  8
0
 62
     0
 48
0.1
100
AcDbLine
 10
116.5048207025363
 20
1305.626901599956
 30
0.0
 11
116.3048207025362
 21
1305.826901599956
 31
0.0
  0
LINE
  5
A916
330
1F
100
AcDbEntity
  8
0
 62
     0
 48
0.1
100
AcDbLine
 10
116.5048207025363
 20
1304.726901599956
 30
0.0
 11
116.5048207025363
 21
1305.526901599956
 31
0.0
  0
LINE
  5
A917
330
1F
100
AcDbEntity
  8
0
 62
     0
 48
0.1
100
AcDbLine
 10
113.5048207025363
 20
1308.726901599956
 30
0.0
 11
113.5048207025363
 21
1300.926901599956
 31
0.0
  0
LINE
  5
A918
330
1F
100
AcDbEntity
  8
0
 62
     0
 48
0.1
100
AcDbLine
 10
113.5048207025363
 20
1304.826901599956
 30
0.0
 11
113.5048207025363
 21
1303.626901599956
 31
0.0
  0
LINE
  5
A919
330
1F
100
AcDbEntity
  8
0
 62
     0
 48
0.1
100
AcDbLine
 10
113.5048207025363
 20
1308.726901599956
 30
0.0
 11
113.4048207025363
 21
1308.826901599956
 31
0.0
  0
LINE
  5
A91A
330
1F
100
AcDbEntity
  8
0
 62
     0
 48
0.1
100
AcDbLine
 10
113.4048207025363
 20
1300.826901599956
 30
0.0
 11
113.5048207025363
 21
1300.926901599956
 31
0.0
  0
LINE
  5
A91B
330
1F
100
AcDbEntity
  8
0
 62
     0
 48
0.1
100
AcDbLine
 10
113.5048207025363
 20
1303.626901599956
 30
0.0
 11
116.3048207025362
 21
1303.626901599956
 31
0.0
  0
LINE
  5
A91C
330
1F
100
AcDbEntity
  8
0
 62
     0
 48
0.1
100
AcDbLine
 10
116.3048207025362
 20
1305.826901599956
 30
0.0
 11
113.5048207025363
 21
1305.826901599956
 31
0.0
  0
LINE
  5
A91E
330
1F
100
AcDbEntity
  8
0
 62
     0
 48
0.1
100
AcDbLine
 10
300.8277436512433
 20
1303.960327107992
 30
0.0
 11
240.4805100634136
 21
1303.960327107992
 31
0.0
  0
ARC
  5
A99F
330
1F
100
AcDbEntity
  8
0
 62
     0
 48
0.1
100
AcDbCircle
 10
525.3381721748787
 20
1307.543569030448
 30
0.0
 40
0.3499999999999943
100
AcDbArc
 50
3.327208078953481
 51
181.8669013737792
  0
ARC
  5
A9A0
330
1F
100
AcDbEntity
  8
0
 62
     0
 48
0.1
100
AcDbCircle
 10
525.5434123809163
 20
1301.246913056217
 30
0.0
 40
0.3499999999999943
100
AcDbArc
 50
181.8669013737792
 51
1.866901373779202
  0
LINE
  5
A9A1
330
1F
100
AcDbEntity
  8
0
 62
     0
 48
0.1
100
AcDbLine
 10
380.5300872232507
 20
1303.960327107992
 30
0.0
 11
306.8277436512433
 21
1303.960327107992
 31
0.0
  0
LINE
  5
A9A2
330
1F
100
AcDbEntity
  8
0
 62
     0
 48
0.1
100
AcDbLine
 10
306.8277436512433
 20
1304.760327107992
 30
0.0
 11
380.5300872232507
 21
1304.760327107992
 31
0.0
  0
ARC
  5
A9A3
330
1F
100
AcDbEntity
  8
0
 62
     0
 48
0.3
100
AcDbCircle
 10
303.8277436512432
 20
1306.616749950994
 30
0.0
 40
4.0
100
AcDbArc
 50
0.0
 51
180.0
  0
LINE
  5
A9A4
330
1F
100
AcDbEntity
  8
0
 62
     0
 48
0.3
100
AcDbLine
 10
303.8277436512432
 20
1303.116749950994
 30
0.0
 11
306.8277436512433
 21
1303.116749950994
 31
0.0
  0
LINE
  5
A9A5
330
1F
100
AcDbEntity
  8
0
 62
     0
 48
0.3
100
AcDbLine
 10
299.8277436512432
 20
1305.616749950994
 30
0.0
 11
307.8277436512432
 21
1305.616749950994
 31
0.0
  0
LINE
  5
A9A6
330
1F
100
AcDbEntity
  8
0
 62
     0
 48
0.3
100
AcDbLine
 10
299.8277436512432
 20
1303.116749950994
 30
0.0
 11
307.8277436512432
 21
1303.116749950994
 31
0.0
  0
LINE
  5
A9A7
330
1F
100
AcDbEntity
  8
0
 62
     0
 48
0.3
100
AcDbLine
 10
307.3028288143681
 20
1303.116749950994
 30
0.0
 11
299.8028288143681
 21
1303.116749950994
 31
0.0
  0
LINE
  5
A9A8
330
1F
100
AcDbEntity
  8
0
 62
     0
 48
0.3
100
AcDbLine
 10
306.8277436512433
 20
1303.116749950994
 30
0.0
 11
300.8277436512432
 21
1303.116749950994
 31
0.0
  0
LINE
  5
A9A9
330
1F
100
AcDbEntity
  8
0
 62
     0
 48
0.3
100
AcDbLine
 10
304.5028288143681
 20
1305.616749950994
 30
0.0
 11
301.0028288143681
 21
1305.616749950994
 31
0.0
  0
LINE
  5
A9AA
330
1F
100
AcDbEntity
  8
0
 62
     0
 48
0.3
100
AcDbLine
 10
308.0028288143681
 20
1305.616749950994
 30
0.0
 11
301.0028288143681
 21
1305.616749950994
 31
0.0
  0
LINE
  5
A9AB
330
1F
100
AcDbEntity
  8
0
 62
     0
 48
0.3
100
AcDbLine
 10
300.8277436512432
 20
1303.116749950994
 30
0.0
 11
300.8277436512432
 21
1305.616749950994
 31
0.0
  0
LINE
  5
A9AC
330
1F
100
AcDbEntity
  8
0
 62
     0
 48
0.3
100
AcDbLine
 10
299.8277436512432
 20
1305.616749950994
 30
0.0
 11
299.8277436512432
 21
1306.646995481941
 31
0.0
  0
LINE
  5
A9AD
330
1F
100
AcDbEntity
  8
0
 62
     0
 48
0.3
100
AcDbLine
 10
307.8277436512432
 20
1305.616749950994
 30
0.0
 11
307.8277436512432
 21
1306.616749950994
 31
0.0
  0
LINE
  5
A9AE
330
1F
100
AcDbEntity
  8
0
 62
     0
 48
0.3
100
AcDbLine
 10
307.8277436512432
 20
1305.616749950994
 30
0.0
 11
307.8277436512432
 21
1306.616749950994
 31
0.0
  0
LINE
  5
A9AF
330
1F
100
AcDbEntity
  8
0
 62
     0
 48
0.3
100
AcDbLine
 10
306.8277436512433
 20
1303.116749950994
 30
0.0
 11
306.8277436512433
 21
1305.616749950994
 31
0.0
  0
LINE
  5
A9B0
330
1F
100
AcDbEntity
  8
0
 62
     0
 48
0.3
100
AcDbLine
 10
308.0028288143681
 20
1305.616749950994
 30
0.0
 11
304.5028288143681
 21
1305.616749950994
 31
0.0
  0
LINE
  5
A9B1
330
1F
100
AcDbEntity
  8
0
 62
     0
 48
0.3
100
AcDbLine
 10
304.5028288143681
 20
1305.616749950994
 30
0.0
 11
308.0028288143681
 21
1305.616749950994
 31
0.0
  0
LINE
  5
A9B2
330
1F
100
AcDbEntity
  8
0
 62
     0
 48
0.1
100
AcDbLine
 10
445.888485232137
 20
1304.695061300892
 30
0.0
 11
503.488356266513
 21
1304.695061300892
 31
0.0
  0
LINE
  5
A9B3
330
1F
100
AcDbEntity
  8
0
 62
     0
 48
0.1
100
AcDbLine
 10
503.488356266513
 20
1303.895061300893
 30
0.0
 11
445.888485232137
 21
1303.895061300893
 31
0.0
  0
LINE
  5
A9B4
330
1F
100
AcDbEntity
  8
0
 62
     0
 48
0.1
100
AcDbLine
 10
506.588356266513
 20
1308.395061300893
 30
0.0
 11
514.488356266513
 21
1308.395061300893
 31
0.0
  0
LINE
  5
A9B5
330
1F
100
AcDbEntity
  8
0
 62
     0
 48
0.1
100
AcDbLine
 10
514.488356266513
 20
1300.395061300892
 30
0.0
 11
506.588356266513
 21
1300.395061300892
 31
0.0
  0
LINE
  5
A9B6
330
1F
100
AcDbEntity
  8
0
 62
     0
 48
0.1
100
AcDbLine
 10
503.488356266513
 20
1303.895061300893
 30
0.0
 11
506.488356266513
 21
1303.895061300893
 31
0.0
  0
LINE
  5
A9B7
330
1F
100
AcDbEntity
  8
0
 62
     0
 48
0.1
100
AcDbLine
 10
503.488356266513
 20
1304.695061300892
 30
0.0
 11
506.488356266513
 21
1304.695061300892
 31
0.0
  0
LINE
  5
A9B8
330
1F
100
AcDbEntity
  8
0
 62
     0
 48
0.1
100
AcDbLine
 10
506.588356266513
 20
1308.395061300893
 30
0.0
 11
506.488356266513
 21
1308.295061300893
 31
0.0
  0
LINE
  5
A9B9
330
1F
100
AcDbEntity
  8
0
 62
     0
 48
0.1
100
AcDbLine
 10
506.488356266513
 20
1300.495061300892
 30
0.0
 11
506.588356266513
 21
1300.395061300892
 31
0.0
  0
LINE
  5
A9BA
330
1F
100
AcDbEntity
  8
0
 62
     0
 48
0.1
100
AcDbLine
 10
506.488356266513
 20
1300.495061300892
 30
0.0
 11
506.488356266513
 21
1308.295061300893
 31
0.0
  0
ARC
  5
A9BB
330
1F
100
AcDbEntity
  8
0
 62
     0
 48
0.1
100
AcDbCircle
 10
520.4381721748786
 20
1307.543569030448
 30
0.0
 40
0.3499999999999943
100
AcDbArc
 50
3.327208078953481
 51
181.8669013737792
  0
ARC
  5
A9BC
330
1F
100
AcDbEntity
  8
0
 62
     0
 48
0.1
100
AcDbCircle
 10
516.2381721748785
 20
1307.543569030448
 30
0.0
 40
0.3499999999999943
100
AcDbArc
 50
3.327208078953481
 51
181.8669013737792
  0
ARC
  5
A9BD
330
1F
100
AcDbEntity
  8
0
 62
     0
 48
0.1
100
AcDbCircle
 10
516.9381721748786
 20
1307.543569030448
 30
0.0
 40
0.3499999999999943
100
AcDbArc
 50
3.327208078953481
 51
181.8669013737792
  0
ARC
  5
A9BE
330
1F
100
AcDbEntity
  8
0
 62
     0
 48
0.1
100
AcDbCircle
 10
517.6381721748786
 20
1307.543569030448
 30
0.0
 40
0.3499999999999943
100
AcDbArc
 50
3.327208078953481
 51
181.8669013737792
  0
ARC
  5
A9BF
330
1F
100
AcDbEntity
  8
0
 62
     0
 48
0.1
100
AcDbCircle
 10
518.3381721748786
 20
1307.543569030448
 30
0.0
 40
0.3499999999999943
100
AcDbArc
 50
3.327208078953481
 51
181.8669013737792
  0
ARC
  5
A9C0
330
1F
100
AcDbEntity
  8
0
 62
     0
 48
0.1
100
AcDbCircle
 10
519.0381721748785
 20
1307.543569030448
 30
0.0
 40
0.3499999999999943
100
AcDbArc
 50
3.327208078953481
 51
181.8669013737792
  0
ARC
  5
A9C1
330
1F
100
AcDbEntity
  8
0
 62
     0
 48
0.1
100
AcDbCircle
 10
519.7381721748786
 20
1307.543569030448
 30
0.0
 40
0.3499999999999943
100
AcDbArc
 50
3.327208078953481
 51
181.8669013737792
  0
ARC
  5
A9C2
330
1F
100
AcDbEntity
  8
0
 62
     0
 48
0.1
100
AcDbCircle
 10
521.1381721748786
 20
1307.543569030448
 30
0.0
 40
0.3499999999999943
100
AcDbArc
 50
3.327208078953481
 51
181.8669013737792
  0
ARC
  5
A9C3
330
1F
100
AcDbEntity
  8
0
 62
     0
 48
0.1
100
AcDbCircle
 10
521.8381721748786
 20
1307.543569030448
 30
0.0
 40
0.3499999999999943
100
AcDbArc
 50
3.327208078953481
 51
181.8669013737792
  0
ARC
  5
A9C4
330
1F
100
AcDbEntity
  8
0
 62
     0
 48
0.1
100
AcDbCircle
 10
522.5381721748785
 20
1307.543569030448
 30
0.0
 40
0.3499999999999943
100
AcDbArc
 50
3.327208078953481
 51
181.8669013737792
  0
ARC
  5
A9C5
330
1F
100
AcDbEntity
  8
0
 62
     0
 48
0.1
100
AcDbCircle
 10
523.2381721748786
 20
1307.543569030448
 30
0.0
 40
0.3499999999999943
100
AcDbArc
 50
3.327208078953481
 51
181.8669013737792
  0
ARC
  5
A9C6
330
1F
100
AcDbEntity
  8
0
 62
     0
 48
0.1
100
AcDbCircle
 10
523.9381721748786
 20
1307.543569030448
 30
0.0
 40
0.3499999999999943
100
AcDbArc
 50
3.327208078953481
 51
181.8669013737792
  0
ARC
  5
A9C7
330
1F
100
AcDbEntity
  8
0
 62
     0
 48
0.1
100
AcDbCircle
 10
524.6381721748786
 20
1307.543569030448
 30
0.0
 40
0.3499999999999943
100
AcDbArc
 50
3.327208078953481
 51
181.8669013737792
  0
ARC
  5
A9C8
330
1F
100
AcDbEntity
  8
0
 62
     0
 48
0.1
100
AcDbCircle
 10
519.9434123809163
 20
1301.246913056217
 30
0.0
 40
0.3499999999999943
100
AcDbArc
 50
181.8669013737792
 51
1.866901373779202
  0
ARC
  5
A9C9
330
1F
100
AcDbEntity
  8
0
 62
     0
 48
0.1
100
AcDbCircle
 10
516.4434123809163
 20
1301.246913056217
 30
0.0
 40
0.3499999999999943
100
AcDbArc
 50
181.8669013737792
 51
1.866901373779202
  0
ARC
  5
A9CA
330
1F
100
AcDbEntity
  8
0
 62
     0
 48
0.1
100
AcDbCircle
 10
517.1434123809164
 20
1301.246913056217
 30
0.0
 40
0.3499999999999943
100
AcDbArc
 50
181.8669013737792
 51
1.866901373779202
  0
ARC
  5
A9CB
330
1F
100
AcDbEntity
  8
0
 62
     0
 48
0.1
100
AcDbCircle
 10
517.8434123809163
 20
1301.246913056217
 30
0.0
 40
0.3499999999999943
100
AcDbArc
 50
181.8669013737792
 51
1.866901373779202
  0
ARC
  5
A9CC
330
1F
100
AcDbEntity
  8
0
 62
     0
 48
0.1
100
AcDbCircle
 10
518.5434123809163
 20
1301.246913056217
 30
0.0
 40
0.3499999999999943
100
AcDbArc
 50
181.8669013737792
 51
1.866901373779202
  0
ARC
  5
A9CD
330
1F
100
AcDbEntity
  8
0
 62
     0
 48
0.1
100
AcDbCircle
 10
519.2434123809164
 20
1301.246913056217
 30
0.0
 40
0.3499999999999943
100
AcDbArc
 50
181.8669013737792
 51
1.866901373779202
  0
ARC
  5
A9CE
330
1F
100
AcDbEntity
  8
0
 62
     0
 48
0.1
100
AcDbCircle
 10
520.6434123809164
 20
1301.246913056217
 30
0.0
 40
0.3499999999999943
100
AcDbArc
 50
181.8669013737792
 51
1.866901373779202
  0
ARC
  5
A9CF
330
1F
100
AcDbEntity
  8
0
 62
     0
 48
0.1
100
AcDbCircle
 10
521.3434123809163
 20
1301.246913056217
 30
0.0
 40
0.3499999999999943
100
AcDbArc
 50
181.8669013737792
 51
1.866901373779202
  0
ARC
  5
A9D0
330
1F
100
AcDbEntity
  8
0
 62
     0
 48
0.1
100
AcDbCircle
 10
522.0434123809163
 20
1301.246913056217
 30
0.0
 40
0.3499999999999943
100
AcDbArc
 50
181.8669013737792
 51
1.866901373779202
  0
ARC
  5
A9D1
330
1F
100
AcDbEntity
  8
0
 62
     0
 48
0.1
100
AcDbCircle
 10
522.7434123809164
 20
1301.246913056217
 30
0.0
 40
0.3499999999999943
100
AcDbArc
 50
181.8669013737792
 51
1.866901373779202
  0
ARC
  5
A9D2
330
1F
100
AcDbEntity
  8
0
 62
     0
 48
0.1
100
AcDbCircle
 10
523.4434123809164
 20
1301.246913056217
 30
0.0
 40
0.3499999999999943
100
AcDbArc
 50
181.8669013737792
 51
1.866901373779202
  0
ARC
  5
A9D3
330
1F
100
AcDbEntity
  8
0
 62
     0
 48
0.1
100
AcDbCircle
 10
524.1434123809163
 20
1301.246913056217
 30
0.0
 40
0.3499999999999943
100
AcDbArc
 50
181.8669013737792
 51
1.866901373779202
  0
ARC
  5
A9D4
330
1F
100
AcDbEntity
  8
0
 62
     0
 48
0.1
100
AcDbCircle
 10
524.8434123809163
 20
1301.246913056217
 30
0.0
 40
0.3499999999999943
100
AcDbArc
 50
181.8669013737792
 51
1.866901373779202
  0
LINE
  5
A9D5
330
1F
100
AcDbEntity
  8
0
 62
     0
 48
0.1
100
AcDbLine
 10
520.088357954088
 20
1307.532166796779
 30
0.0
 11
520.2935981601258
 21
1301.235510822548
 31
0.0
  0
LINE
  5
A9D6
330
1F
100
AcDbEntity
  8
0
 62
     0
 48
0.1
100
AcDbLine
 10
515.888357954088
 20
1307.532166796779
 30
0.0
 11
516.0935981601258
 21
1301.235510822548
 31
0.0
  0
LINE
  5
A9D7
330
1F
100
AcDbEntity
  8
0
 62
     0
 48
0.1
100
AcDbLine
 10
516.588357954088
 20
1307.532166796779
 30
0.0
 11
516.7935981601258
 21
1301.235510822548
 31
0.0
  0
LINE
  5
A9D8
330
1F
100
AcDbEntity
  8
0
 62
     0
 48
0.1
100
AcDbLine
 10
517.288357954088
 20
1307.532166796779
 30
0.0
 11
517.4935981601257
 21
1301.235510822548
 31
0.0
  0
LINE
  5
A9D9
330
1F
100
AcDbEntity
  8
0
 62
     0
 48
0.1
100
AcDbLine
 10
517.9883579540881
 20
1307.532166796779
 30
0.0
 11
518.1935981601258
 21
1301.235510822548
 31
0.0
  0
LINE
  5
A9DA
330
1F
100
AcDbEntity
  8
0
 62
     0
 48
0.1
100
AcDbLine
 10
518.688357954088
 20
1307.532166796779
 30
0.0
 11
518.8935981601257
 21
1301.235510822548
 31
0.0
  0
LINE
  5
A9DB
330
1F
100
AcDbEntity
  8
0
 62
     0
 48
0.1
100
AcDbLine
 10
519.388357954088
 20
1307.532166796779
 30
0.0
 11
519.5935981601258
 21
1301.235510822548
 31
0.0
  0
LINE
  5
A9DC
330
1F
100
AcDbEntity
  8
0
 62
     0
 48
0.1
100
AcDbLine
 10
520.788357954088
 20
1307.532166796779
 30
0.0
 11
520.9935981601257
 21
1301.235510822548
 31
0.0
  0
LINE
  5
A9DD
330
1F
100
AcDbEntity
  8
0
 62
     0
 48
0.1
100
AcDbLine
 10
521.488357954088
 20
1307.532166796779
 30
0.0
 11
521.6935981601258
 21
1301.235510822548
 31
0.0
  0
LINE
  5
A9DE
330
1F
100
AcDbEntity
  8
0
 62
     0
 48
0.1
100
AcDbLine
 10
522.188357954088
 20
1307.532166796779
 30
0.0
 11
522.3935981601257
 21
1301.235510822548
 31
0.0
  0
LINE
  5
A9DF
330
1F
100
AcDbEntity
  8
0
 62
     0
 48
0.1
100
AcDbLine
 10
522.888357954088
 20
1307.532166796779
 30
0.0
 11
523.0935981601257
 21
1301.235510822548
 31
0.0
  0
LINE
  5
A9E0
330
1F
100
AcDbEntity
  8
0
 62
     0
 48
0.1
100
AcDbLine
 10
523.588357954088
 20
1307.532166796779
 30
0.0
 11
523.7935981601258
 21
1301.235510822548
 31
0.0
  0
LINE
  5
A9E1
330
1F
100
AcDbEntity
  8
0
 62
     0
 48
0.1
100
AcDbLine
 10
524.288357954088
 20
1307.532166796779
 30
0.0
 11
524.4935981601257
 21
1301.235510822548
 31
0.0
  0
LINE
  5
A9E2
330
1F
100
AcDbEntity
  8
0
 62
     0
 48
0.1
100
AcDbLine
 10
524.988357954088
 20
1307.532166796779
 30
0.0
 11
525.1935981601258
 21
1301.235510822548
 31
0.0
  0
ARC
  5
A9E3
330
1F
100
AcDbEntity
  8
0
 62
     0
 48
0.1
100
AcDbCircle
 10
514.8381721748786
 20
1307.543569030448
 30
0.0
 40
0.3499999999999943
100
AcDbArc
 50
3.327208078953481
 51
181.8669013737792
  0
ARC
  5
A9E4
330
1F
100
AcDbEntity
  8
0
 62
     0
 48
0.1
100
AcDbCircle
 10
515.0434123809163
 20
1301.246913056217
 30
0.0
 40
0.3499999999999943
100
AcDbArc
 50
181.8669013737792
 51
1.866901373779202
  0
LINE
  5
A9E5
330
1F
100
AcDbEntity
  8
0
 62
     0
 48
0.1
100
AcDbLine
 10
514.488356266513
 20
1308.395061300893
 30
0.0
 11
514.488356266513
 21
1300.395061300892
 31
0.0
  0
LINE
  5
A9E6
330
1F
100
AcDbEntity
  8
0
 62
     0
 48
0.1
100
AcDbLine
 10
514.4883579540881
 20
1307.532166796779
 30
0.0
 11
514.6935981601258
 21
1301.235510822548
 31
0.0
  0
LINE
  5
A9E7
330
1F
100
AcDbEntity
  8
0
 62
     0
 48
0.1
100
AcDbLine
 10
515.1883579540879
 20
1307.532166796779
 30
0.0
 11
515.3935981601257
 21
1301.235510822548
 31
0.0
  0
ARC
  5
A9E8
330
1F
100
AcDbEntity
  8
0
 62
     0
 48
0.1
100
AcDbCircle
 10
515.7434123809164
 20
1301.246913056217
 30
0.0
 40
0.3499999999999943
100
AcDbArc
 50
181.8669013737792
 51
1.866901373779202
  0
ARC
  5
A9E9
330
1F
100
AcDbEntity
  8
0
 62
     0
 48
0.1
100
AcDbCircle
 10
515.5381721748786
 20
1307.543569030448
 30
0.0
 40
0.3499999999999943
100
AcDbArc
 50
3.327208078953481
 51
181.8669013737792
  0
LINE
  5
A9EA
330
1F
100
AcDbEntity
  8
0
 62
     0
 48
0.1
100
AcDbLine
 10
535.0963912900182
 20
1304.045061300892
 30
0.0
 11
549.0881721748786
 21
1304.045061300892
 31
0.0
  0
LINE
  5
A9EB
330
1F
100
AcDbEntity
  8
0
 62
     0
 48
0.1
100
AcDbLine
 10
549.0882104990382
 20
1304.745061300892
 30
0.0
 11
536.0407695876094
 21
1304.745061300892
 31
0.0
  0
LINE
  5
A9EC
330
1F
100
AcDbEntity
  8
0
 62
     0
 48
0.3
100
AcDbLine
 10
542.7398340899476
 20
1303.114898028629
 30
0.0
 11
548.7398340899476
 21
1303.114898028629
 31
0.0
  0
LINE
  5
A9ED
330
1F
100
AcDbEntity
  8
0
 62
     0
 48
0.3
100
AcDbLine
 10
542.2647489268229
 20
1303.114898028629
 30
0.0
 11
549.7647489268229
 21
1303.114898028629
 31
0.0
  0
LINE
  5
A9EE
330
1F
100
AcDbEntity
  8
0
 62
     0
 48
0.3
100
AcDbLine
 10
549.7398340899476
 20
1303.114898028629
 30
0.0
 11
541.7398340899476
 21
1303.114898028629
 31
0.0
  0
LINE
  5
A9EF
330
1F
100
AcDbEntity
  8
0
 62
     0
 48
0.3
100
AcDbLine
 10
549.7398340899476
 20
1305.614898028629
 30
0.0
 11
541.7398340899476
 21
1305.614898028629
 31
0.0
  0
ARC
  5
A9F0
330
1F
100
AcDbEntity
  8
0
 62
     0
 48
0.3
100
AcDbCircle
 10
545.7398340899476
 20
1306.614898028628
 30
0.0
 40
4.0
100
AcDbArc
 50
0.0
 51
180.0
  0
ARC
  5
A9F1
330
1F
100
AcDbEntity
  8
0
 62
     0
 48
0.1
100
AcDbCircle
 10
531.6381721748785
 20
1307.543569030448
 30
0.0
 40
0.3499999999999943
100
AcDbArc
 50
3.327208078953481
 51
181.8669013737792
  0
ARC
  5
A9F2
330
1F
100
AcDbEntity
  8
0
 62
     0
 48
0.1
100
AcDbCircle
 10
528.1381721748785
 20
1307.543569030448
 30
0.0
 40
0.3499999999999943
100
AcDbArc
 50
3.327208078953481
 51
181.8669013737792
  0
ARC
  5
A9F3
330
1F
100
AcDbEntity
  8
0
 62
     0
 48
0.1
100
AcDbCircle
 10
528.8381721748786
 20
1307.543569030448
 30
0.0
 40
0.3499999999999943
100
AcDbArc
 50
3.327208078953481
 51
181.8669013737792
  0
ARC
  5
A9F4
330
1F
100
AcDbEntity
  8
0
 62
     0
 48
0.1
100
AcDbCircle
 10
529.5381721748785
 20
1307.543569030448
 30
0.0
 40
0.3499999999999943
100
AcDbArc
 50
3.327208078953481
 51
181.8669013737792
  0
ARC
  5
A9F5
330
1F
100
AcDbEntity
  8
0
 62
     0
 48
0.1
100
AcDbCircle
 10
530.2381721748786
 20
1307.543569030448
 30
0.0
 40
0.3499999999999943
100
AcDbArc
 50
3.327208078953481
 51
181.8669013737792
  0
ARC
  5
A9F6
330
1F
100
AcDbEntity
  8
0
 62
     0
 48
0.1
100
AcDbCircle
 10
530.9381721748787
 20
1307.543569030448
 30
0.0
 40
0.3499999999999943
100
AcDbArc
 50
3.327208078953481
 51
181.8669013737792
  0
ARC
  5
A9F7
330
1F
100
AcDbEntity
  8
0
 62
     0
 48
0.1
100
AcDbCircle
 10
532.3381721748786
 20
1307.543569030448
 30
0.0
 40
0.3499999999999943
100
AcDbArc
 50
3.327208078953481
 51
181.8669013737792
  0
ARC
  5
A9F8
330
1F
100
AcDbEntity
  8
0
 62
     0
 48
0.1
100
AcDbCircle
 10
533.0381721748786
 20
1307.543569030448
 30
0.0
 40
0.3499999999999943
100
AcDbArc
 50
3.327208078953481
 51
181.8669013737792
  0
ARC
  5
A9F9
330
1F
100
AcDbEntity
  8
0
 62
     0
 48
0.1
100
AcDbCircle
 10
533.7381721748786
 20
1307.543569030448
 30
0.0
 40
0.3499999999999943
100
AcDbArc
 50
3.327208078953481
 51
181.8669013737792
  0
ARC
  5
A9FA
330
1F
100
AcDbEntity
  8
0
 62
     0
 48
0.1
100
AcDbCircle
 10
534.4381721748787
 20
1307.543569030448
 30
0.0
 40
0.3499999999999943
100
AcDbArc
 50
3.327208078953481
 51
181.8669013737792
  0
ARC
  5
A9FB
330
1F
100
AcDbEntity
  8
0
 62
     0
 48
0.1
100
AcDbCircle
 10
526.0381721748785
 20
1307.543569030448
 30
0.0
 40
0.3499999999999943
100
AcDbArc
 50
3.327208078953481
 51
181.8669013737792
  0
ARC
  5
A9FC
330
1F
100
AcDbEntity
  8
0
 62
     0
 48
0.1
100
AcDbCircle
 10
526.7381721748786
 20
1307.543569030448
 30
0.0
 40
0.3499999999999943
100
AcDbArc
 50
3.327208078953481
 51
181.8669013737792
  0
ARC
  5
A9FD
330
1F
100
AcDbEntity
  8
0
 62
     0
 48
0.1
100
AcDbCircle
 10
527.4381721748786
 20
1307.543569030448
 30
0.0
 40
0.3499999999999943
100
AcDbArc
 50
3.327208078953481
 51
181.8669013737792
  0
ARC
  5
A9FE
330
1F
100
AcDbEntity
  8
0
 62
     0
 48
0.1
100
AcDbCircle
 10
531.8434123809163
 20
1301.246913056217
 30
0.0
 40
0.3499999999999943
100
AcDbArc
 50
181.8669013737792
 51
1.866901373779202
  0
ARC
  5
A9FF
330
1F
100
AcDbEntity
  8
0
 62
     0
 48
0.1
100
AcDbCircle
 10
527.6434123809163
 20
1301.246913056217
 30
0.0
 40
0.3499999999999943
100
AcDbArc
 50
181.8669013737792
 51
1.866901373779202
  0
ARC
  5
AA00
330
1F
100
AcDbEntity
  8
0
 62
     0
 48
0.1
100
AcDbCircle
 10
528.3434123809163
 20
1301.246913056217
 30
0.0
 40
0.3499999999999943
100
AcDbArc
 50
181.8669013737792
 51
1.866901373779202
  0
ARC
  5
AA01
330
1F
100
AcDbEntity
  8
0
 62
     0
 48
0.1
100
AcDbCircle
 10
529.0434123809164
 20
1301.246913056217
 30
0.0
 40
0.3499999999999943
100
AcDbArc
 50
181.8669013737792
 51
1.866901373779202
  0
ARC
  5
AA02
330
1F
100
AcDbEntity
  8
0
 62
     0
 48
0.1
100
AcDbCircle
 10
529.7434123809164
 20
1301.246913056217
 30
0.0
 40
0.3499999999999943
100
AcDbArc
 50
181.8669013737792
 51
1.866901373779202
  0
ARC
  5
AA03
330
1F
100
AcDbEntity
  8
0
 62
     0
 48
0.1
100
AcDbCircle
 10
530.4434123809163
 20
1301.246913056217
 30
0.0
 40
0.3499999999999943
100
AcDbArc
 50
181.8669013737792
 51
1.866901373779202
  0
ARC
  5
AA04
330
1F
100
AcDbEntity
  8
0
 62
     0
 48
0.1
100
AcDbCircle
 10
531.1434123809164
 20
1301.246913056217
 30
0.0
 40
0.3499999999999943
100
AcDbArc
 50
181.8669013737792
 51
1.866901373779202
  0
ARC
  5
AA05
330
1F
100
AcDbEntity
  8
0
 62
     0
 48
0.1
100
AcDbCircle
 10
532.5434123809164
 20
1301.246913056217
 30
0.0
 40
0.3499999999999943
100
AcDbArc
 50
181.8669013737792
 51
1.866901373779202
  0
ARC
  5
AA06
330
1F
100
AcDbEntity
  8
0
 62
     0
 48
0.1
100
AcDbCircle
 10
533.2434123809163
 20
1301.246913056217
 30
0.0
 40
0.3499999999999943
100
AcDbArc
 50
181.8669013737792
 51
1.866901373779202
  0
ARC
  5
AA07
330
1F
100
AcDbEntity
  8
0
 62
     0
 48
0.1
100
AcDbCircle
 10
533.9434123809163
 20
1301.246913056217
 30
0.0
 40
0.3499999999999943
100
AcDbArc
 50
181.8669013737792
 51
1.866901373779202
  0
ARC
  5
AA08
330
1F
100
AcDbEntity
  8
0
 62
     0
 48
0.1
100
AcDbCircle
 10
534.6434123809164
 20
1301.246913056217
 30
0.0
 40
0.3499999999999943
100
AcDbArc
 50
181.8669013737792
 51
1.866901373779202
  0
ARC
  5
AA09
330
1F
100
AcDbEntity
  8
0
 62
     0
 48
0.1
100
AcDbCircle
 10
535.134463368994
 20
1303.764754028456
 30
0.0
 40
0.2828809823553445
100
AcDbArc
 50
97.73473392155727
 51
141.9282648455182
  0
LINE
  5
AA0A
330
1F
100
AcDbEntity
  8
0
 62
     0
 48
0.1
100
AcDbLine
 10
536.0407695876094
 20
1304.745061300892
 30
0.0
 11
535.0963912900182
 21
1304.745061300892
 31
0.0
  0
ARC
  5
AA0B
330
1F
100
AcDbEntity
  8
0
 62
     0
 48
0.1
100
AcDbCircle
 10
535.134463368994
 20
1304.464754028456
 30
0.0
 40
0.2828809823553445
100
AcDbArc
 50
97.73473392155727
 51
152.1511265370377
  0
LINE
  5
AA0C
330
1F
100
AcDbEntity
  8
0
 62
     0
 48
0.1
100
AcDbLine
 10
533.4792039695867
 20
1304.745061300892
 30
0.0
 11
533.4792039695867
 21
1304.045061300892
 31
0.0
  0
ARC
  5
AA0D
330
1F
100
AcDbEntity
  8
0
 62
     0
 48
0.1
100
AcDbCircle
 10
526.2434123809164
 20
1301.246913056217
 30
0.0
 40
0.3499999999999943
100
AcDbArc
 50
181.8669013737792
 51
1.866901373779202
  0
ARC
  5
AA0E
330
1F
100
AcDbEntity
  8
0
 62
     0
 48
0.1
100
AcDbCircle
 10
526.9434123809163
 20
1301.246913056217
 30
0.0
 40
0.3499999999999943
100
AcDbArc
 50
181.8669013737792
 51
1.866901373779202
  0
LINE
  5
AA0F
330
1F
100
AcDbEntity
  8
0
 62
     0
 48
0.1
100
AcDbLine
 10
525.688357954088
 20
1307.532166796779
 30
0.0
 11
525.8935981601257
 21
1301.235510822548
 31
0.0
  0
LINE
  5
AA10
330
1F
100
AcDbEntity
  8
0
 62
     0
 48
0.1
100
AcDbLine
 10
526.388357954088
 20
1307.532166796779
 30
0.0
 11
526.5935981601257
 21
1301.235510822548
 31
0.0
  0
LINE
  5
AA11
330
1F
100
AcDbEntity
  8
0
 62
     0
 48
0.1
100
AcDbLine
 10
527.0883579540879
 20
1307.532166796779
 30
0.0
 11
527.2935981601258
 21
1301.235510822548
 31
0.0
  0
LINE
  5
AA12
330
1F
100
AcDbEntity
  8
0
 62
     0
 48
0.1
100
AcDbLine
 10
527.788357954088
 20
1307.532166796779
 30
0.0
 11
527.9935981601258
 21
1301.235510822548
 31
0.0
  0
LINE
  5
AA13
330
1F
100
AcDbEntity
  8
0
 62
     0
 48
0.1
100
AcDbLine
 10
528.488357954088
 20
1307.532166796779
 30
0.0
 11
528.6935981601258
 21
1301.235510822548
 31
0.0
  0
LINE
  5
AA14
330
1F
100
AcDbEntity
  8
0
 62
     0
 48
0.1
100
AcDbLine
 10
529.188357954088
 20
1307.532166796779
 30
0.0
 11
529.3935981601257
 21
1301.235510822548
 31
0.0
  0
LINE
  5
AA15
330
1F
100
AcDbEntity
  8
0
 62
     0
 48
0.1
100
AcDbLine
 10
529.8883579540881
 20
1307.532166796779
 30
0.0
 11
530.0935981601258
 21
1301.235510822548
 31
0.0
  0
LINE
  5
AA16
330
1F
100
AcDbEntity
  8
0
 62
     0
 48
0.1
100
AcDbLine
 10
530.5883579540879
 20
1307.532166796779
 30
0.0
 11
530.7935981601258
 21
1301.235510822548
 31
0.0
  0
LINE
  5
AA17
330
1F
100
AcDbEntity
  8
0
 62
     0
 48
0.1
100
AcDbLine
 10
531.288357954088
 20
1307.532166796779
 30
0.0
 11
531.4935981601258
 21
1301.235510822548
 31
0.0
  0
LINE
  5
AA18
330
1F
100
AcDbEntity
  8
0
 62
     0
 48
0.1
100
AcDbLine
 10
531.988357954088
 20
1307.532166796779
 30
0.0
 11
532.1935981601257
 21
1301.235510822548
 31
0.0
  0
LINE
  5
AA19
330
1F
100
AcDbEntity
  8
0
 62
     0
 48
0.1
100
AcDbLine
 10
532.688357954088
 20
1307.532166796779
 30
0.0
 11
532.8935981601257
 21
1301.235510822548
 31
0.0
  0
LINE
  5
AA1A
330
1F
100
AcDbEntity
  8
0
 62
     0
 48
0.1
100
AcDbLine
 10
533.388357954088
 20
1307.532166796779
 30
0.0
 11
533.5935981601258
 21
1301.235510822548
 31
0.0
  0
LINE
  5
AA1B
330
1F
100
AcDbEntity
  8
0
 62
     0
 48
0.1
100
AcDbLine
 10
534.0883579540879
 20
1307.532166796779
 30
0.0
 11
534.2935981601258
 21
1301.235510822548
 31
0.0
  0
LINE
  5
AA1C
330
1F
100
AcDbEntity
  8
0
 62
     0
 48
0.1
100
AcDbLine
 10
534.7875822038848
 20
1307.563882366705
 30
0.0
 11
534.9932266017069
 21
1301.258315289886
 31
0.0
  0
LINE
  5
AA1D
330
1F
100
AcDbEntity
  8
0
 62
     0
 48
0.3
100
AcDbLine
 10
542.7398340899476
 20
1304.745061300892
 30
0.0
 11
542.7398340899476
 21
1305.614898028629
 31
0.0
  0
LINE
  5
AA1E
330
1F
100
AcDbEntity
  8
0
 62
     0
 48
0.3
100
AcDbLine
 10
542.7398340899476
 20
1303.114898028629
 30
0.0
 11
542.7398340899476
 21
1304.045061300892
 31
0.0
  0
LINE
  5
AA1F
330
1F
100
AcDbEntity
  8
0
 62
     0
 48
0.3
100
AcDbLine
 10
545.7398340899476
 20
1303.114898028629
 30
0.0
 11
542.7398340899476
 21
1303.114898028629
 31
0.0
  0
LINE
  5
AA20
330
1F
100
AcDbEntity
  8
0
 62
     0
 48
0.3
100
AcDbLine
 10
545.0647489268228
 20
1305.614898028629
 30
0.0
 11
548.5647489268228
 21
1305.614898028629
 31
0.0
  0
LINE
  5
AA21
330
1F
100
AcDbEntity
  8
0
 62
     0
 48
0.3
100
AcDbLine
 10
541.7398340899476
 20
1305.614898028629
 30
0.0
 11
541.7398340899476
 21
1306.614898028628
 31
0.0
  0
LINE
  5
AA22
330
1F
100
AcDbEntity
  8
0
 62
     0
 48
0.3
100
AcDbLine
 10
541.7398340899476
 20
1305.614898028629
 30
0.0
 11
541.7398340899476
 21
1306.614898028628
 31
0.0
  0
LINE
  5
AA23
330
1F
100
AcDbEntity
  8
0
 62
     0
 48
0.3
100
AcDbLine
 10
548.7398340899476
 20
1304.745061300892
 30
0.0
 11
548.7398340899476
 21
1305.614898028629
 31
0.0
  0
ARC
  5
AA24
330
1F
100
AcDbEntity
  8
0
 62
     0
 48
0.1
100
AcDbCircle
 10
549.0881721748786
 20
1304.395061300892
 30
0.0
 40
0.3499999999999943
100
AcDbArc
 50
270.0
 51
90.0
  0
LINE
  5
AA25
330
1F
100
AcDbEntity
  8
0
 62
     0
 48
0.3
100
AcDbLine
 10
549.7398340899476
 20
1305.614898028629
 30
0.0
 11
549.7398340899476
 21
1306.645143559576
 31
0.0
  0
LINE
  5
AA26
330
1F
100
AcDbEntity
  8
0
 62
     0
 48
0.3
100
AcDbLine
 10
548.7398340899476
 20
1303.114898028629
 30
0.0
 11
548.7398340899476
 21
1304.045061300892
 31
0.0
  0
LEADER
  5
AA27
330
1F
100
AcDbEntity
  8
0
 62
     0
 48
0.1
100
AcDbLeader
  3
ISO-25
 73
     0
 40
2.0
 76
     3
 10
261.1940187051334
 20
1304.760327107992
 30
0.0
 10
276.8955660590991
 20
1321.068551113072
 30
0.0
 10
308.7647347839374
 20
1321.068551113072
 30
0.0
340
AA28
213
0.0
223
-2.0
233
0.0
1001
ACAD
1000
DSTYLE
1002
{
1070
   147
1040
0.625
1070
    77
1070
     0
1002
}
  0
MTEXT
  5
AA28
102
{ACAD_REACTORS
330
AA27
102
}
330
1F
100
AcDbEntity
  8
0
 62
     0
 48
0.1
100
AcDbMText
 10
387.0311606324189
 20
1548.854164423274
 30
0.0
 40
2.0
 41
0.0
 71
     1
 72
     1
  1

 73
     1
 44
1.0
  0
MTEXT
  5
AA29
102
{ACAD_REACTORS
330
AA2A
102
}
330
1F
100
AcDbEntity
  8
0
 62
     0
 48
0.1
100
AcDbMText
 10
123.308686660939
 20
1322.944321795441
 30
0.0
 40
4.0
 41
0.0
 71
     1
 72
     1
  1
グリップ付き（ワイヤー長さ調節器）ＳＵＳスプリング
 73
     1
 44
1.0
  0
LEADER
  5
AA2A
330
1F
100
AcDbEntity
  8
0
 62
     0
 48
0.1
100
AcDbLeader
  3
ISO-25
 73
     0
 40
4.000000000000001
 41
118.8952380952381
 76
     3
 10
109.3528159161179
 20
1309.302148767924
 30
0.0
 10
119.4116295051661
 20
1320.944321795441
 30
0.0
 10
122.683686660939
 20
1320.944321795441
 30
0.0
340
AA29
213
0.0
223
-2.0
233
0.0
1001
ACAD
1000
DSTYLE
1002
{
1070
   147
1040
0.625
1070
    77
1070
     0
1002
}
  0
MTEXT
  5
AA2B
330
1F
100
AcDbEntity
  8
0
 62
     0
 48
0.1
100
AcDbMText
 10
308.2831533345988
 20
1323.21274323529
 30
0.0
 40
4.0
 41
0.0
 71
     1
 72
     1
  1
%%c0.8SUSワイヤー
 73
     1
 44
1.0
  0
LINE
  5
AA33
330
1F
100
AcDbEntity
  8
0
 62
     0
 48
0.1
100
AcDbLine
 10
240.4805100634136
 20
1304.760327107992
 30
0.0
 11
300.8277436512433
 21
1304.760327107992
 31
0.0
  0
MTEXT
  5
AA44
330
1F
100
AcDbEntity
  8
0
 48
0.5
100
AcDbMText
 10
-77.17271697923433
 20
975.1914655197253
 30
0.0
 40
8.0
 41
0.0
 71
     1
 72
     5
  1
\U+203B 附属のｔ3ワッシャーは必要に応じて使用してください
 73
     1
 44
1.0
  0
LWPOLYLINE
  5
AA54
330
1F
100
AcDbEntity
  8
0
 48
0.5
100
AcDbPolyline
 90
        4
 70
     1
 43
0.0
 10
541.0452791018924
 20
939.9982134779833
 10
578.1504472421816
 20
939.9982134779833
 10
578.1504472421816
 20
928.1777705846627
 10
541.0452791018924
 20
928.1777705846627
  0
VIEWPORT
  5
2F
330
1B
100
AcDbEntity
 67
     1
  8
0
100
AcDbViewport
 10
210.8645862540714
 20
149.7815185269692
 30
0.0
 40
479.1862016322689
 41
324.9607266531437
 68
     1
 69
     1
 12
210.8645862540714
 22
149.7815185269692
 13
0.0
 23
0.0
 14
10.0
 24
10.0
 15
10.0
 25
10.0
 16
0.0
 26
0.0
 36
1.0
 17
0.0
 27
0.0
 37
0.0
 42
50.0
 43
0.0
 44
0.0
 45
324.9607266531437
 50
0.0
 51
0.0
 72
   100
 90
    32800
  1

281
     0
 71
     1
 74
     0
110
0.0
120
0.0
130
0.0
111
1.0
121
0.0
131
0.0
112
0.0
122
1.0
132
0.0
 79
     0
146
0.0
  0
LWPOLYLINE
  5
AA
330
1B
100
AcDbEntity
 67
     1
  8
２
 62
     0
100
AcDbPolyline
 90
        4
 70
     1
 43
0.0
 10
1.042221639059562
 20
284.1844718556203
 10
407.757958684845
 20
284.1844718556203
 10
407.757958684845
 20
1.08829855961801
 10
1.042221639059562
 20
1.08829855961801
  0
MTEXT
  5
DC
330
1B
100
AcDbEntity
 67
     1
  8
２
 62
     0
100
AcDbMText
 10
275.257958684845
 20
4.588298559618024
 30
0.0
 40
3.0
 41
55.0
 71
     5
 72
     5
  1
{\fMS UI Gothic|b0|i0|c128|p50;株式会社 アルティマ}
 73
     1
 44
1.0
  0
LINE
  5
DD
330
1B
100
AcDbEntity
 67
     1
  8
２
 62
     0
100
AcDbLine
 10
262.757958684845
 20
8.088298559618039
 30
0.0
 11
302.757958684845
 21
8.088298559618039
 31
0.0
  0
LINE
  5
DE
330
1B
100
AcDbEntity
 67
     1
  8
２
 62
     0
100
AcDbLine
 10
342.7579586848451
 20
23.08829855961798
 30
0.0
 11
247.757958684845
 21
23.08829855961792
 31
0.0
  0
LINE
  5
DF
330
1B
100
AcDbEntity
 67
     1
  8
２
 62
     0
100
AcDbLine
 10
247.7579586848449
 20
18.08829855961798
 30
0.0
 11
342.7579586848451
 21
18.08829855961798
 31
0.0
  0
LINE
  5
E0
330
1B
100
AcDbEntity
 67
     1
  8
２
 62
     0
100
AcDbLine
 10
342.7579586848451
 20
13.08829855961801
 30
0.0
 11
247.7579586848451
 21
13.08829855961798
 31
0.0
  0
LINE
  5
E1
330
1B
100
AcDbEntity
 67
     1
  8
２
 62
     0
100
AcDbLine
 10
352.757958684845
 20
8.08829855961801
 30
0.0
 11
252.8023834435082
 21
8.088298559618039
 31
0.0
  0
LINE
  5
E2
330
1B
100
AcDbEntity
 67
     1
  8
２
 62
     0
100
AcDbLine
 10
407.7579586848449
 20
28.08829855961801
 30
0.0
 11
247.7579586848449
 21
28.08829855961803
 31
0.0
  0
MTEXT
  5
E3
330
1B
100
AcDbEntity
 67
     1
  8
２
 62
     0
100
AcDbMText
 10
255.2579586848449
 20
25.58829855961798
 30
0.0
 40
2.0
 41
15.0
 71
     5
 72
     5
  1
{\fMS UI Gothic|b0|i0|c128|p50;パーツ}
 73
     1
 44
1.0
  0
LINE
  5
E4
330
1B
100
AcDbEntity
 67
     1
  8
２
 62
     0
100
AcDbLine
 10
247.7579586848449
 20
8.088298559618039
 30
0.0
 11
262.757958684845
 21
8.088298559618039
 31
0.0
  0
LINE
  5
E5
330
1B
100
AcDbEntity
 67
     1
  8
２
 62
     0
100
AcDbLine
 10
247.7579586848451
 20
13.08829855961798
 30
0.0
 11
247.7579586848449
 21
18.08829855961798
 31
0.0
  0
LINE
  5
E6
330
1B
100
AcDbEntity
 67
     1
  8
２
 62
     0
100
AcDbLine
 10
247.7579586848449
 20
28.08829855961803
 30
0.0
 11
247.7579586848449
 21
9.237389132921862
 31
0.0
  0
LINE
  5
E7
330
1B
100
AcDbEntity
 67
     1
  8
２
 62
     0
100
AcDbLine
 10
247.7579586848449
 20
9.237389132921862
 30
0.0
 11
247.7579586848449
 21
1.088298559618039
 31
0.0
  0
LINE
  5
E8
330
1B
100
AcDbEntity
 67
     1
  8
２
 62
     0
100
AcDbLine
 10
262.757958684845
 20
8.088298559618039
 30
0.0
 11
262.757958684845
 21
28.08829855961803
 31
0.0
  0
LINE
  5
EC
330
1B
100
AcDbEntity
 67
     1
  8
２
 62
     0
100
AcDbLine
 10
407.757958684845
 20
8.08829855961801
 30
0.0
 11
352.757958684845
 21
8.08829855961801
 31
0.0
  0
MTEXT
  5
ED
330
1B
100
AcDbEntity
 67
     1
  8
２
 62
     0
 48
0.3
100
AcDbMText
 10
317.7579586848451
 20
4.370495529314986
 30
0.0
 40
2.0
 41
20.0
 71
     5
 72
     5
  1
E.Nomura
 73
     1
 44
1.0
  0
MTEXT
  5
EE
330
1B
100
AcDbEntity
 67
     1
  8
２
 62
     0
100
AcDbMText
 10
322.7579586848449
 20
25.588298559618
 30
0.0
 40
2.0
 41
40.0
 71
     5
 72
     5
  1
{\fMS UI Gothic|b0|i0|c128|p50;処　　　理}
 73
     1
 44
1.0
  0
LINE
  5
EF
330
1B
100
AcDbEntity
 67
     1
  8
２
 62
     0
100
AcDbLine
 10
327.757958684845
 20
1.08829855961801
 30
0.0
 11
307.7579586848451
 21
1.08829855961801
 31
0.0
  0
MTEXT
  5
F0
330
1B
100
AcDbEntity
 67
     1
  8
２
 62
     0
100
AcDbMText
 10
282.7579586848449
 20
25.58829855961799
 30
0.0
 40
2.0
 41
40.0
 71
     5
 72
     5
  1
{\fMS UI Gothic|b0|i0|c128|p50;材　　　質}
 73
     1
 44
1.0
  0
LINE
  5
F1
330
1B
100
AcDbEntity
 67
     1
  8
２
 62
     0
100
AcDbLine
 10
302.757958684845
 20
8.088298559618039
 30
0.0
 11
302.757958684845
 21
28.08829855961803
 31
0.0
  0
MTEXT
  5
F2
330
1B
100
AcDbEntity
 67
     1
  8
２
 62
     0
100
AcDbMText
 10
305.2690710641766
 20
4.588298559618021
 30
0.0
 40
2.0
 41
4.9778
 71
     5
 72
     5
  1
{\fMS UI Gothic|b0|i0|c128|p50;製\P図}
 73
     1
 44
1.0
  0
LINE
  5
F3
330
1B
100
AcDbEntity
 67
     1
  8
２
 62
     0
100
AcDbLine
 10
302.757958684845
 20
8.088298559618039
 30
0.0
 11
302.757958684845
 21
1.08829855961801
 31
0.0
  0
LINE
  5
F4
330
1B
100
AcDbEntity
 67
     1
  8
２
 62
     0
100
AcDbLine
 10
307.7579586848451
 20
1.08829855961801
 30
0.0
 11
307.7579586848451
 21
8.08829855961801
 31
0.0
  0
LINE
  5
F5
330
1B
100
AcDbEntity
 67
     1
  8
２
 62
     0
100
AcDbLine
 10
307.7579586848451
 20
8.08829855961801
 30
0.0
 11
302.757958684845
 21
8.088298559618039
 31
0.0
  0
MTEXT
  5
F6
330
1B
100
AcDbEntity
 67
     1
  8
２
 62
     0
100
AcDbMText
 10
347.7579586848451
 20
18.08829855961802
 30
0.0
 40
2.5
 41
10.0
 71
     5
 72
     5
  1
{\fMS UI Gothic|b0|i0|c128|p50;品\P\P名}
 73
     1
 44
1.0
  0
MTEXT
  5
F7
330
1B
100
AcDbEntity
 67
     1
  8
２
 62
     0
100
AcDbMText
 10
347.7579586848451
 20
4.588298559618021
 30
0.0
 40
2.0
 41
10.0
 71
     5
 72
     5
  1
{\fMS UI Gothic|b0|i0|c128|p50;品番}
 73
     1
 44
1.0
  0
LINE
  5
F8
330
1B
100
AcDbEntity
 67
     1
  8
２
 62
     0
100
AcDbLine
 10
342.7579586848451
 20
28.08829855961801
 30
0.0
 11
352.757958684845
 21
28.08829855961801
 31
0.0
  0
LINE
  5
F9
330
1B
100
AcDbEntity
 67
     1
  8
２
 62
     0
100
AcDbLine
 10
352.757958684845
 20
1.08829855961801
 30
0.0
 11
342.7579586848451
 21
1.08829855961801
 31
0.0
  0
LINE
  5
FA
330
1B
100
AcDbEntity
 67
     1
  8
２
 62
     0
100
AcDbLine
 10
342.7579586848451
 20
1.08829855961801
 30
0.0
 11
342.7579586848451
 21
28.08829855961801
 31
0.0
  0
LINE
  5
FB
330
1B
100
AcDbEntity
 67
     1
  8
２
 62
     0
100
AcDbLine
 10
342.7579586848451
 20
1.08829855961801
 30
0.0
 11
332.7579586848451
 21
1.08829855961801
 31
0.0
  0
MTEXT
  5
FC
330
1B
100
AcDbEntity
 67
     1
  8
２
 62
     0
100
AcDbMText
 10
330.2579586848451
 20
4.588298559618017
 30
0.0
 40
2.0
 41
5.0
 71
     5
 72
     5
  1
{\fMS UI Gothic|b0|i0|c128|p50;縮\P尺}
 73
     1
 44
1.0
  0
LINE
  5
FD
330
1B
100
AcDbEntity
 67
     1
  8
２
 62
     0
100
AcDbLine
 10
327.757958684845
 20
8.08829855961801
 30
0.0
 11
327.757958684845
 21
1.08829855961801
 31
0.0
  0
LINE
  5
FE
330
1B
100
AcDbEntity
 67
     1
  8
２
 62
     0
100
AcDbLine
 10
332.7579586848451
 20
1.08829855961801
 30
0.0
 11
332.7579586848451
 21
8.08829855961801
 31
0.0
  0
LINE
  5
FF
330
1B
100
AcDbEntity
 67
     1
  8
２
 62
     0
100
AcDbLine
 10
332.7579586848451
 20
8.08829855961801
 30
0.0
 11
327.757958684845
 21
8.08829855961801
 31
0.0
  0
LINE
  5
100
330
1B
100
AcDbEntity
 67
     1
  8
２
 62
     0
100
AcDbLine
 10
342.7579586848451
 20
8.08829855961801
 30
0.0
 11
342.7579586848451
 21
13.08829855961801
 31
0.0
  0
LINE
  5
101
330
1B
100
AcDbEntity
 67
     1
  8
２
 62
     0
100
AcDbLine
 10
342.7579586848451
 20
18.08829855961798
 30
0.0
 11
342.7579586848451
 21
23.08829855961798
 31
0.0
  0
LINE
  5
102
330
1B
100
AcDbEntity
 67
     1
  8
２
 62
     0
100
AcDbLine
 10
352.757958684845
 20
28.08829855961801
 30
0.0
 11
352.757958684845
 21
8.08829855961801
 31
0.0
  0
LINE
  5
103
330
1B
100
AcDbEntity
 67
     1
  8
２
 62
     0
100
AcDbLine
 10
352.757958684845
 20
8.08829855961801
 30
0.0
 11
352.757958684845
 21
1.08829855961801
 31
0.0
  0
LINE
  5
104
330
1B
100
AcDbEntity
 67
     1
  8
２
 62
     0
100
AcDbLine
 10
407.757958684845
 20
1.08829855961801
 30
0.0
 11
407.7579586848449
 21
28.08829855961801
 31
0.0
  0
LINE
  5
105
330
1B
100
AcDbEntity
 67
     1
  8
２
 62
     0
100
AcDbLine
 10
407.757958684845
 20
1.08829855961801
 30
0.0
 11
407.757958684845
 21
8.08829855961801
 31
0.0
  0
LINE
  5
10E
330
1B
100
AcDbEntity
 67
     1
  8
２
 62
     0
 48
0.3
100
AcDbLine
 10
348.1319795129643
 20
277.1869416790318
 30
0.0
 11
407.82803226079
 21
277.1869416790318
 31
0.0
  0
LINE
  5
10F
330
1B
100
AcDbEntity
 67
     1
  8
２
 62
     0
 48
0.3
100
AcDbLine
 10
348.1319795129643
 20
277.1869416790318
 30
0.0
 11
348.1319795129643
 21
284.1844718556203
 31
0.0
  0
LINE
  5
111
330
1B
100
AcDbEntity
 67
     1
  8
２
 62
     0
 48
0.3
100
AcDbLine
 10
358.9855818391189
 20
284.1844718556203
 30
0.0
 11
358.9855818391189
 21
277.1869416790318
 31
0.0
  0
MTEXT
  5
112
330
1B
100
AcDbEntity
 67
     1
  8
２
 62
     0
100
AcDbMText
 10
255.2579586848451
 20
10.58829855961801
 30
0.0
 40
2.5
 41
15.0
 71
     5
 72
     5
  1
{\fMS UI Gothic|b0|i0|c128|p17;１}
 73
     1
 44
1.0
  0
MTEXT
  5
113
330
1B
100
AcDbEntity
 67
     1
  8
２
 62
     0
100
AcDbMText
 10
255.2579586848449
 20
15.58829855961798
 30
0.0
 40
2.5
 41
15.0
 71
     5
 72
     5
  1
{\fMS UI Gothic|b0|i0|c128|p17;２}
 73
     1
 44
1.0
  0
MTEXT
  5
114
330
1B
100
AcDbEntity
 67
     1
  8
２
 62
     0
100
AcDbMText
 10
255.257958684845
 20
20.58829855961795
 30
0.0
 40
2.5
 41
15.0
 71
     5
 72
     5
  1
{\fMS UI Gothic|b0|i0|c128|p17;３}
 73
     1
 44
1.0
  0
MTEXT
  5
115
330
1B
100
AcDbEntity
 67
     1
  8
２
 62
     0
100
AcDbMText
 10
353.5587795129643
 20
280.6857067673261
 30
0.0
 40
2.5
 41
10.8536
 71
     5
 72
     5
  1
{\fMS UI Gothic|b0|i0|c128|p17;日付}
 73
     1
 44
1.0
  0
MTEXT
  5
1DD
330
1B
100
AcDbEntity
 67
     1
  8
１
100
AcDbMText
 10
187.6389970102438
 20
148.8327383458293
 30
0.0
 40
2.5
 41
0.0
 71
     9
 72
     1
  1

  7
ｽﾀｲﾙ1
 73
     1
 44
1.0
  0
MTEXT
  5
1DF
330
1B
100
AcDbEntity
 67
     1
  8
１
100
AcDbMText
 10
125.9251163363451
 20
100.1557259194321
 30
0.0
 40
2.5
 41
0.0
 71
     9
 72
     1
  1

  7
ｽﾀｲﾙ1
 73
     1
 44
1.0
  0
MTEXT
  5
1F5
330
1B
100
AcDbEntity
 67
     1
  8
１
100
AcDbMText
 10
95.93852678293661
 20
241.1781167614512
 30
0.0
 40
2.5
 41
0.0
 71
     1
 72
     1
  1

  7
ｽﾀｲﾙ1
 73
     1
 44
1.0
  0
MTEXT
  5
1F7
330
1B
100
AcDbEntity
 67
     1
  8
１
100
AcDbMText
 10
103.8845037960281
 20
221.796204377297
 30
0.0
 40
2.5
 41
0.0
 71
     1
 72
     1
  1

  7
ｽﾀｲﾙ1
 73
     1
 44
1.0
  0
ENDSEC
  0
SECTION
  2
OBJECTS
  0
DICTIONARY
  5
C
330
0
100
AcDbDictionary
281
     1
  3
ACAD_GROUP
350
D
  3
ACAD_IMAGE_VARS
350
2B
  3
ACAD_LAYOUT
350
1A
  3
ACAD_MLINESTYLE
350
17
  3
ACAD_PLOTSETTINGS
350
19
  3
ACAD_PLOTSTYLENAME
350
E
  3
AcadDim
350
805F
  3
AcDbVariableDictionary
350
65AD
  3
DWGPROPS
350
7E1
  0
DICTIONARY
  5
D
102
{ACAD_REACTORS
330
C
102
}
330
C
100
AcDbDictionary
281
     1
  0
RASTERVARIABLES
  5
2B
102
{ACAD_REACTORS
330
C
102
}
330
C
100
AcDbRasterVariables
 90
        0
 70
     1
 71
     1
 72
     1
  0
DICTIONARY
  5
1A
102
{ACAD_REACTORS
330
C
102
}
330
C
100
AcDbDictionary
281
     1
  3
Model
350
22
  3
ﾚｲｱｳﾄ1
350
1E
  3
ﾚｲｱｳﾄ2
350
26
  0
DICTIONARY
  5
17
102
{ACAD_REACTORS
330
C
102
}
330
C
100
AcDbDictionary
281
     1
  3
Standard
350
18
  0
DICTIONARY
  5
19
102
{ACAD_REACTORS
330
C
102
}
330
C
100
AcDbDictionary
281
     1
  0
ACDBDICTIONARYWDFLT
  5
E
102
{ACAD_REACTORS
330
C
102
}
330
C
100
AcDbDictionary
281
     1
  3
Normal
350
F
100
AcDbDictionaryWithDefault
340
F
  0
XRECORD
  5
805F
102
{ACAD_REACTORS
330
C
102
}
330
C
100
AcDbXrecord
280
     1
 90
   990106
  3

 60
     0
 61
     0
 62
     1
 63
     3
 64
     0
 65
     0
 66
     0
 67
     3
 68
     1
 69
     0
 70
     0
 71
     0
 72
     0
 40
20.43801309868158
170
     0
340
A545
  0
DICTIONARY
  5
65AD
102
{ACAD_REACTORS
330
C
102
}
330
C
100
AcDbDictionary
281
     1
  3
SORTENTS
350
65AE
  0
XRECORD
  5
7E1
102
{ACAD_REACTORS
330
C
102
}
330
C
100
AcDbXrecord
280
     1
  1
DWGPROPS COOKIE
  2

  3

  4

  6

  7

  8

  9

300
=
301
=
302
=
303
=
304
=
305
=
306
=
307
=
308
=
309
=
 40
0.1525764814814815
 41
2454873.622250069
 42
2455268.41966037
  1

 90
        0
  0
LAYOUT
  5
22
102
{ACAD_REACTORS
330
1A
102
}
330
1A
100
AcDbPlotSettings
  1

  2
RICOH IPSiO G515
  4
A3
  6

 40
5.873749732971191
 41
5.873747825622558
 42
5.873748779296875
 43
5.873748779296875
 44
296.9259948730469
 45
419.9466552734374
 46
0.0
 47
0.0
 48
0.0
 49
0.0
140
0.0
141
0.0
142
1.0
143
1.959971811730723
 70
 11952
 72
     1
 73
     1
 74
     1
  7

 75
     0
147
0.5102114193759578
148
117.6657051803588
149
-817.5266692991444
100
AcDbLayout
  1
Model
 70
     1
 71
     0
 10
0.0
 20
0.0
 11
12.0
 21
9.0
 12
0.0
 22
0.0
 32
0.0
 14
0.0
 24
0.0
 34
0.0
 15
0.0
 25
0.0
 35
0.0
146
0.0
 13
0.0
 23
0.0
 33
0.0
 16
1.0
 26
0.0
 36
0.0
 17
0.0
 27
1.0
 37
0.0
 76
     0
330
1F
  0
LAYOUT
  5
1E
102
{ACAD_REACTORS
330
1A
102
}
330
1A
100
AcDbPlotSettings
  1

  2
RICOH imagio MP C3500 RPCS
  4
A3
  6

 40
5.873749732971191
 41
5.873747825622558
 42
5.873748779296875
 43
5.873748779296875
 44
296.9259948730469
 45
419.9466552734374
 46
0.0
 47
0.0
 48
0.0
 49
0.0
140
0.0
141
0.0
142
1.0
143
1.0
 70
   688
 72
     1
 73
     1
 74
     5
  7

 75
    16
147
1.0
148
0.0
149
0.0
100
AcDbLayout
  1
ﾚｲｱｳﾄ1
 70
     1
 71
     1
 10
-5.873748779296875
 20
-5.873749732971191
 11
414.0729064941406
 21
291.0522451400757
 12
0.0
 22
0.0
 32
0.0
 14
1.042221639059562
 24
1.08829855961801
 34
0.0
 15
407.82803226079
 25
284.1844718556203
 35
0.0
146
0.0
 13
0.0
 23
0.0
 33
0.0
 16
1.0
 26
0.0
 36
0.0
 17
0.0
 27
1.0
 37
0.0
 76
     0
330
1B
331
2F
  0
LAYOUT
  5
26
102
{ACAD_REACTORS
330
1A
102
}
330
1A
100
AcDbPlotSettings
  1

  2
RICOH imagio Neo C380 RPCS
  4

  6

 40
0.0
 41
0.0
 42
0.0
 43
0.0
 44
0.0
 45
0.0
 46
0.0
 47
0.0
 48
0.0
 49
0.0
140
0.0
141
0.0
142
1.0
143
1.0
 70
   688
 72
     0
 73
     1
 74
     5
  7

 75
    16
147
1.0
148
0.0
149
0.0
100
AcDbLayout
  1
ﾚｲｱｳﾄ2
 70
     1
 71
     2
 10
0.0
 20
0.0
 11
0.0
 21
0.0
 12
0.0
 22
0.0
 32
0.0
 14
0.0
 24
0.0
 34
0.0
 15
0.0
 25
0.0
 35
0.0
146
0.0
 13
0.0
 23
0.0
 33
0.0
 16
1.0
 26
0.0
 36
0.0
 17
0.0
 27
1.0
 37
0.0
 76
     0
330
23
331
922
  0
MLINESTYLE
  5
18
102
{ACAD_REACTORS
330
17
102
}
330
17
100
AcDbMlineStyle
  2
STANDARD
 70
     0
  3

 62
   256
 51
90.0
 52
90.0
 71
     2
 49
0.5
 62
   256
  6
BYLAYER
 49
-0.5
 62
   256
  6
BYLAYER
  0
ACDBPLACEHOLDER
  5
F
102
{ACAD_REACTORS
330
E
102
}
330
E
  0
DICTIONARYVAR
  5
65AE
102
{ACAD_REACTORS
330
65AD
102
}
330
65AD
100
DictionaryVariables
280
     0
  1
96
  0
ENDSEC
  0
EOF
